Anime - Other

Princess Mononoke german avi mnvv2 ws

  • Download 5x Faster
  • Download torrent
  • Direct Download
  • Rate this torrent +  |  -
Princess Mononoke german avi mnvv2 ws

Anonymous and Direct Download 300GB+ free


Torrent info

Name:Princess Mononoke german avi mnvv2 ws

Total Size: 1.31 GB

Magnet: Magnet Link

Seeds: 0

Leechers: 0

Stream: Watch Online @ Movie4u

Last Updated: 2013-01-31 11:07:09 (Update Now)

Torrent added: 2008-07-06 06:33:23




Torrent Files List


cover1.jpg (Size: 1.31 GB) (Files: 5)

 cover1.jpg

4.40 KB

 cover2.jpg

3.88 KB

 Prinzessin.Mononoke.-.DVD-Rip.-.DivX.Deutsch.-.CD1.avi

658.04 MB

 Prinzessin.Mononoke.-.DVD-Rip.-.DivX.Deutsch.-.CD2.avi

681.08 MB

 Prinzessin.Mononoke.nfo

1.81 KB
 

Announce URL:

Torrent description

please register at mnvv2.ws






eneral
Complete name : D:downloadsPrincess MononokePrinzessin.Mononoke.-.DVD-Rip.-.DivX.Deutsch.-.CD1.avi
Format : AVI
Format/Info : Audio Video Interleave
File size : 658 MiB
Duration : 1h 7mn
Overal bit rate : 1358 Kbps
Writing library : VirtualDub build 13870/release

Video
Format : MPEG-4 Visual
Format settings, BVOP : Yes
Format settings, QPel : No
Format settings, GMC : 2 warppoints
Format settings, Matrix : Default
Muxing mode : Packet Bitstream
Codec ID : DX50
Codec ID/Hint : DivX 5
Duration : 1h 7mn
Bit rate : 1253 Kbps
Width : 640 pixels
Height : 352 pixels
Display aspect ratio : 16/9
Frame rate : 23.976 fps
Resolution : 8 bits
Scan type : Progressive
Bits/(Pixel*Frame) : 0.232
Stream size : 607 MiB
Writing library : DivX 5.0.2 (UTC 2002-05-16)

Audio
Format : MPEG Audio
Format version : Version 1
Format profile : Layer 3
Codec ID : 55
Codec ID/Hint : MP3
Duration : 1h 7mn
Bit rate mode : Constant
Bit rate : 96.0 Kbps
Channel(s) : 2 channels
Sampling rate : 48.0 KHz
Resolution : 16 bits
Stream size : 46.5 MiB

related torrents

Torrent name

health leech seeds Size
 


comments (0)

Main Menu