Action

Death Race (2008) 2Cd WorkPrint UnCut h 264 {1337x} Noir

  • Download 5x Faster
  • Download torrent
  • Direct Download
  • Rate this torrent +  |  -

Torrent info

Name:Death Race (2008) 2Cd WorkPrint UnCut h 264 {1337x} Noir

Total Size: 1.37 GB

Magnet: Magnet Link

Seeds: 1

Leechers: 72

Stream: Watch Full Movie @ Movie4u

Last Updated: 2010-11-10 07:50:58 (Update Now)

Torrent added: 2008-09-14 05:29:50



VPN For Torrents

Torrent Files List


death race.CD01.avi (Size: 1.37 GB) (Files: 3)

 death race.CD01.avi

700.04 MB

 death race.CD02.avi

700.07 MB

 Noir.nfo

8.36 KB
 

Announce URL: http://genesis.1337x.org:1337/announce

Torrent description

Death Race (2008) 2Cd WorkPrint UnCut h 264 {1337x} Noir preview 0

Screenshots

Death Race (2008) 2Cd WorkPrint UnCut h 264 {1337x} Noir preview 1

Death Race (2008) 2Cd WorkPrint UnCut h 264 {1337x} Noir preview 2

Death Race (2008) 2Cd WorkPrint UnCut h 264 {1337x} Noir preview 3

Death Race (2008) 2Cd WorkPrint UnCut h 264 {1337x} Noir preview 4

[code]

▓▓▓▓▓▓
▓█████▓ ▓▓▓▓
▓██████▓ ▓▓███▓
▓▓██████▓ ▓████▓▓▓▓▓▓
██████▓ ▓██▒█▓▓███▓▓ ▓▓▓▓▓▓▓▓▓▓▓▓▓
▓██▒████▓ ▓██▒█▓██████▓▓███▓███▓███▓▓
▓██▒▒████▓ ▓██▒███▒▒▒▒██▓████████████▓
▓██▒▒▒▒███▓ ▓██▒██▒▒▒▒▒▒███▒▒▒██▒█▒▒▒██▓▓
▓██▒▒██▒▒██▓▓██▒██▒▒█▒▒▒▒███████▒▒▒▒▒▒██▓
▓██▒▒███▒▒██▓██▒██▒█▓█▒▒▒██▒▒▒██▒▒██▒▒▒█▓
▓██▒▒████▒▒████▒██▒█▓█▒▒▒██▒▒▒██▒▒███▒██▓
▓██▒▒█▓███▒▒███▒██▒▒█▒▒▒▒██▒▒▒██▒▒██████▓
▓██▒▒█▓▓███▒▒██▒██▒▒▒▒▒▒▒██▒▒▒██▒▒██▓███▓
▓▓██▒▒█▓ ▓███▒▒█▒██▒▒▒▒▒▒▒███████▒▒██▓▓▓▓▓
▓▓███▒▒█▓ ▓███▒▒▒███▒▒▒▒▒██▓▓▓▓██▒▒██▓
▓████▒▒█▓ ▓███▒▒█████████▓▓ ▓██▒▒██▓
▓████▒▒█▓ ▓███▒█▓██████▓▓▓ ▓██████▓
▓███████▓ ▓▓████▓▓▓▓▓▓▓▓ ▓▓▓▓▓▓▓▓
▓▓▓▓▓▓▓▓▓ ▓▓▓▓▓




*********************
* Death Race (2008) *
*********************

________________________
General Information |
________________________|
_______________________________________________________________
Type : Movie |
Format : AVI |
Format/Info : Audio Video Interleave |
File size : Cd1-700Mb Cd2-700Mb |
Duration : Cd1-52mn 22s Cd2-52mn 22s |
Subtitles : None |
Source : Dvd Workprint NTSC |
Genre : Action | Adventure | Sci-Fi |ThrilleR|
IMDB Link : http://www.imdb.com/title/tt0452608/ |
Rating : 6.7/10 |
_______________________________________________________________|

CD1
________________________________________________________________
Video
Format : AVC
Format/Info : Advanced Video Codec
Format profile : [email protected]
Format settings, CABAC : Yes
Format settings, ReFrames : 3 frames
Codec ID : H264
Duration : 52mn 22s
Bit rate : 1 635 Kbps
Width : 640 pixels
Height : 288 pixels
Display aspect ratio : 2.222
Frame rate : 23.976 fps
Resolution : 24 bits
Colorimetry : 4:2:0
Scan type : Progressive
Bits/(Pixel*Frame) : 0.370
Stream size : 613 MiB (88%)
Writing library : x264 core 58 svn-736bm
_______________________________________________________________
Audio
Format : MPEG Audio
Format version : Version 1
Format profile : Layer 3
Codec ID : 55
Codec ID/Hint : MP3
Duration : 52mn 22s
Bit rate mode : Constant
Bit rate : 224 Kbps
Minimum bit rate : 224 Kbps
Channel(s) : 2 channels
Sampling rate : 48.0 KHz
Resolution : 16 bits
Stream size : 83.9 MiB (12%)
Alignment : Aligned on interleaves
Interleave, duration : 42 ms (1.00 video frame)
Interleave, preload duration : 504 ms
Writing library : LAME3.97
Encoding settings : CBR
_______________________________________________________________


CD2
_______________________________________________________________
Video
Format : AVC
Format/Info : Advanced Video Codec
Format profile : [email protected]
Format settings, CABAC : Yes
Format settings, ReFrames : 3 frames
Codec ID : H264
Duration : 52mn 22s
Bit rate : 1 635 Kbps
Width : 640 pixels
Height : 288 pixels
Display aspect ratio : 2.222
Frame rate : 23.976 fps
Resolution : 24 bits
Colorimetry : 4:2:0
Scan type : Progressive
Bits/(Pixel*Frame) : 0.370
Stream size : 613 MiB (88%)
Writing library : x264 core 58 svn-736bm
________________________________________________________________
Audio
Format : MPEG Audio
Format version : Version 1
Format profile : Layer 3
Codec ID : 55
Codec ID/Hint : MP3
Duration : 52mn 22s
Bit rate mode : Constant
Bit rate : 224 Kbps
Minimum bit rate : 224 Kbps
Channel(s) : 2 channels
Sampling rate : 48.0 KHz
Resolution : 16 bits
Stream size : 83.9 MiB (12%)
Alignment : Aligned on interleaves
Interleave, duration : 42 ms (1.00 video frame)
Interleave, preload duration : 504 ms
Writing library : LAME3.97
Encoding settings : CBR
__________________________________________________________________
________________
Description |
________________|
_______________________________________________________________
In 2012, the United States economy collapses and life for |
everyone is not the same. Once a NASCAR champion, Jensen Ames, |
(Jason Statham), hits rock bottom and spent several years in |
prison. His life was improving and changing for the better |
after meeting and marrying Suzy (Janaya Stephens) and having |
a baby girl. Then the steel mill closes, and he loses his job. |
But that was not the worst thing to happen to Jenson that day. |
Suzy is brutally murdered, and he is framed for her murder. |
Jenson is sent to Terminal Island, the worst and toughest |
for-profit prison in the country run by Warden Hennessey |
(Joan Allen). She has created the country\'s most popular |
pay-per-view sport, a kill-or-be-killed car race where the |
inmates race to win their freedom from prison after 5 wins. |
Every inmate driver is driving a monster car that they built |
which is loaded with machine guns, missiles, flamethrowers, |
napalm, and no rules. Warden Hennessey convinces Jensen to |
secretly take the place of the late 4-time superstar winner, |
Frankenstein, and wear his metallic mask in the race. If |
Jensen wins just one race, he can go home to his baby daughter.|
To get to the finish line, Jensen must kill his competition |
before they kill him. |
_______________________________________________________________|
_________________________________________________________________
____________________
Playback Information|
____________________|
_______________________________________________________________
For best playback with my movie you will need an h.264/x264 |
Decoder.My personal favorite is CoreAvc Professional. |
http://www.coreavc.com/ . You can download it with serial |
and application from My site here. |
http://noirsstuff.googlepages.com/home |
You can also use ffdshow for playback as well,VLC media Player,|
And media player classic. |
_______________________________________________________________|
___________________
Post Information |
___________________|
________________________________
Posted by............: Noir |
Posted on............: 9/14/2008|
________________________________|
[/code]
Death Race (2008) 2Cd WorkPrint UnCut h 264 {1337x} Noir preview 5

Death Race (2008) 2Cd WorkPrint UnCut h 264 {1337x} Noir preview 6

related torrents

Torrent name

health leech seeds Size
 


comments (0)

Main Menu

 

script data-cfasync="false" src="//d2ghscazvn398x.cloudfront.net/?cshgd=690275">