Drama

Perfect (1985)

  • Download 5x Faster
  • Download torrent
  • Direct Download
  • Rate this torrent +  |  -
Perfect (1985)

Anonymous and Free Direct Download 300GB+


Torrent info

Name:Perfect (1985)

Total Size: 696.13 MB

Magnet: Magnet Link

Seeds: 0

Leechers: 0

Stream: Watch Online @ Movie4u

Last Updated: 0000-00-00 00:00:00 (Update Now)

Torrent added: 2008-09-13 09:37:04



VPN For Torrents

Torrent Files List


Info about this release.txt (Size: 696.13 MB) (Files: 4)

 Info about this release.txt

4.54 KB

 Notes on subtitle files.txt

1.68 KB

 Optional Swedish subtitles.rar

941.92 KB

 Perfect (1985) Jamie Lee Curtis+John Travolta (OptSwesubs)_Kuth.avi

695.20 MB
 

Announce URL:

Torrent description

Perfect (1985)
DVDrip English
Optional Swedish subtitles in separate idx/sub files.

With Jamie Lee Curtis (then 27) and John Travolta (then 31).

A female aerobics instructor meets a male reporter doing a story on health clubs, and gives us the most energetic hipwork I have ever seen in a feature film. The critics hated it, they obviously didn't see the point.

I couldn't find a torrent for this film anywhere. It is no longer for sale in Europe, so I was lucky to find this rental DVD, which is now a collector's item.

DVDrip, XviD 2-pass Widescreen 704x288, great stereo sound AC3.

Burn tested, runs well in both my standalone DivX players.


Format/Info : Audio Video Interleave
File size : 695 MiB
Duration : 1h 55mn
Overal bit rate : 844 Kbps

Video
Format : MPEG-4 Visual
Format profile : Streaming [email protected]
Format settings, BVOP : Yes
Format settings, QPel : No
Format settings, GMC : No warppoints
Format settings, Matrix : Default
Muxing mode : Packet Bitstream
Codec ID : XVID
Codec ID/Hint : XviD
Duration : 1h 55mn
Bit rate : 707 Kbps
Width : 704 pixels
Height : 288 pixels
Display aspect ratio : 2.444
Frame rate : 25.000 fps
Resolution : 8 bits
Colorimetry : 4:2:0
Scan type : Progressive
Bits/(Pixel*Frame) : 0.139
Stream size : 582 MiB
Writing library : XviD 1.2.0.dev47 (UTC 2006-11-01)

Audio
Format : MPEG Audio
Format version : Version 1
Format profile : Layer 3
Codec ID : 55
Codec ID/Hint : MP3
Duration : 1h 55mn
Bit rate mode : Constant
Bit rate : 128 Kbps
Minimum bit rate : 128 Kbps
Channel(s) : 2 channels
Sampling rate : 48.0 KHz
Resolution : 16 bits
Stream size : 105 MiB
Writing library : LAME3.97
Encoding settings : CBR

Source: PAL rental 6 GiB, (note that PAL/NTSC will give no problems for avi files)


Thanks to the uploader!

related torrents

Torrent name

health leech seeds Size

Perfect Beat 1980 1985

0 0 98.00 MB 0
 


comments (0)

Main Menu