Thriller

Restraint 2008 DVDSCR XviD PreVail by M333

  • Download 5x Faster
  • Download torrent
  • Direct Download
  • Rate this torrent +  |  -
Restraint 2008 DVDSCR XviD PreVail by M333

Free and Direct Download with Usenet 300GB+ free


Torrent info

Name:Restraint 2008 DVDSCR XviD PreVail by M333

Total Size: 697.31 MB

Magnet: Magnet Link

Seeds: 1

Leechers: 97

Stream: Watch Online @ Movie4u

Last Updated: 2010-09-22 10:41:46 (Update Now)

Torrent added: 2008-07-05 21:36:57




Torrent Files List


Logo.jpg (Size: 697.31 MB) (Files: 2)

 Logo.jpg

205.50 KB

 Restraint 2008 DVDSCR XviD-PreVail by M333.avi

697.11 MB
 

Announce URL: http://open.tracker.thepiratebay.org/announce

Torrent description

General
Complete name : D:\FLAWL3SS Releases\Restraint 2008 DVDSCR XviD-PreVail by M333\Restraint 2008 DVDSCR XviD-PreVail by M333.avi
Format : AVI
Format/Info : Audio Video Interleave
File size : 697 MiB
Duration : 1h 31mn
Overal bit rate : 1066 Kbps
Writing application : Nandub v1.0rc2
Writing library : Nandub build 1852/release

Video
Format : MPEG-4 Visual
Format profile : Streaming [email protected]
Format settings, BVOP : Yes
Format settings, QPel : No
Format settings, GMC : No warppoints
Format settings, Matrix : Default
Muxing mode : Packet Bitstream
Codec ID : XVID
Codec ID/Hint : XviD
Duration : 1h 31mn
Bit rate : 923 Kbps
Width : 608 pixels
Height : 256 pixels
Display aspect ratio : 2.35
Frame rate : 23.976 fps
Resolution : 8 bits
Colorimetry : 4:2:0
Scan type : Progressive
Bits/(Pixel*Frame) : 0.247
Stream size : 604 MiB
Writing library : XviD 1.1.2 (UTC 2006-11-01)

Audio
Format : MPEG Audio
Format version : Version 1
Format profile : Layer 3
Codec ID : 55
Codec ID/Hint : MP3
Duration : 1h 31mn
Bit rate mode : Variable
Bit rate : 130 Kbps
Nominal bit rate : 128 Kbps
Channel(s) : 2 channels
Sampling rate : 48.0 KHz
Resolution : 16 bits
Video delay : 528ms
Stream size : 84.9 MiB
Writing library : LAME3.90.
Encoding settings : ABR

Hash

AC332FFF7DB72F1DB9F675C5F599CFF73C557969

Trackers

http://open.tracker.thepiratebay.org/announce

http://denis.stalker.h3q.com:6969/announce

http://www.torrentsnipe.info:2701/announce

http://vip.tracker.thepiratebay.org:80/announce


Screen Shots

Restraint 2008 DVDSCR XviD PreVail by M333 preview 0

Restraint 2008 DVDSCR XviD PreVail by M333 preview 1

Restraint 2008 DVDSCR XviD PreVail by M333 preview 2

Restraint 2008 DVDSCR XviD PreVail by M333 preview 3

Restraint 2008 DVDSCR XviD PreVail by M333 preview 4

Restraint 2008 DVDSCR XviD PreVail by M333 preview 5

IMDB

http://www.imdb.com/title/tt0441782/

related torrents

Torrent name

health leech seeds Size
 

comments (0)

Main Menu