Thriller

Mother of Tears The Third Mother (2007) DvdRip Xvid {1337x Noir

  • Download 5x Faster
  • Download torrent
  • Direct Download
  • Rate this torrent +  |  -

Torrent info

Name:Mother of Tears The Third Mother (2007) DvdRip Xvid {1337x Noir

Total Size: 710.66 MB

Magnet: Magnet Link

Seeds: 0

Leechers: 0

Stream: Watch Online @ Movie4u

Last Updated: 2016-10-29 01:31:06 (Update Now)

Torrent added: 2008-09-11 21:57:08



VPN For Torrents

Torrent Files List


1337x.Org.txt (Size: 710.66 MB) (Files: 5)

 1337x.Org.txt

0.03 KB

 Mother of Tears-The Third Mother (2007) [DvdRip] [Xvid] {1337x]-Noir.avi

697.73 MB

 Noir.nfo

5.33 KB

 Subs

  Mother of Tears-The Third Mother (2007) [DvdRip] [Xvid] {1337x]-Noir.idx

171.98 KB

  Mother of Tears-The Third Mother (2007) [DvdRip] [Xvid] {1337x]-Noir.sub

12.75 MB
 

tracker

leech seeds
 

Torrent description

Mother of Tears The Third Mother (2007) DvdRip Xvid {1337x Noir preview 0

Screenshots

Mother of Tears The Third Mother (2007) DvdRip Xvid {1337x Noir preview 1

Mother of Tears The Third Mother (2007) DvdRip Xvid {1337x Noir preview 2

Mother of Tears The Third Mother (2007) DvdRip Xvid {1337x Noir preview 3

Mother of Tears The Third Mother (2007) DvdRip Xvid {1337x Noir preview 4
[code]

▓▓▓▓▓▓
▓█████▓ ▓▓▓▓
▓██████▓ ▓▓███▓
▓▓██████▓ ▓████▓▓▓▓▓▓
██████▓ ▓██▒█▓▓███▓▓ ▓▓▓▓▓▓▓▓▓▓▓▓▓
▓██▒████▓ ▓██▒█▓██████▓▓███▓███▓███▓▓
▓██▒▒████▓ ▓██▒███▒▒▒▒██▓████████████▓
▓██▒▒▒▒███▓ ▓██▒██▒▒▒▒▒▒███▒▒▒██▒█▒▒▒██▓▓
▓██▒▒██▒▒██▓▓██▒██▒▒█▒▒▒▒███████▒▒▒▒▒▒██▓
▓██▒▒███▒▒██▓██▒██▒█▓█▒▒▒██▒▒▒██▒▒██▒▒▒█▓
▓██▒▒████▒▒████▒██▒█▓█▒▒▒██▒▒▒██▒▒███▒██▓
▓██▒▒█▓███▒▒███▒██▒▒█▒▒▒▒██▒▒▒██▒▒██████▓
▓██▒▒█▓▓███▒▒██▒██▒▒▒▒▒▒▒██▒▒▒██▒▒██▓███▓
▓▓██▒▒█▓ ▓███▒▒█▒██▒▒▒▒▒▒▒███████▒▒██▓▓▓▓▓
▓▓███▒▒█▓ ▓███▒▒▒███▒▒▒▒▒██▓▓▓▓██▒▒██▓
▓████▒▒█▓ ▓███▒▒█████████▓▓ ▓██▒▒██▓
▓████▒▒█▓ ▓███▒█▓██████▓▓▓ ▓██████▓
▓███████▓ ▓▓████▓▓▓▓▓▓▓▓ ▓▓▓▓▓▓▓▓
▓▓▓▓▓▓▓▓▓ ▓▓▓▓▓




********************************************
* Mother of Tears: The Third Mother (2007) *
********************************************

________________________
General Information |
________________________|
_______________________________________________________________
Type : Movie |
Format : AVI |
Format/Info : Audio Video Interleave |
File size : 698 MiB |
Duration : 1h 40mn |
Subtitles : English,Spanish |
Source : Dvd NTSC |
Genre : Drama | Fantasy | Horror | Thriller |
IMDB Link : http://www.imdb.com/title/tt0425061/ |
Rating : 5.6/10 |
_______________________________________________________________|

________________________________________________________________
Video
Format : MPEG-4 Visual
Format profile : Streaming [email protected]
Format settings, BVOP : Yes
Format settings, QPel : Yes
Format settings, GMC : 3 warppoints
Format settings, Matrix : Custom
Muxing mode : Packet Bitstream
Codec ID : DX50/60
Codec ID/Hint : DivX 5
Duration : 1h 40mn
Bit rate : 834 Kbps
Width : 640 pixels
Height : 272 pixels
Display aspect ratio : 2.35
Frame rate : 23.976 fps
Resolution : 24 bits
Colorimetry : 4:2:0
Scan type : Progressive
Bits/(Pixel*Frame) : 0.200
Stream size : 599 MiB (86%)
Writing library : XviD 1.2.0SMP
_______________________________________________________________
Audio
Format : MPEG Audio
Format version : Version 1
Format profile : Layer 3
Codec ID : 55
Codec ID/Hint : MP3
Duration : 1h 40mn
Bit rate mode : Constant
Bit rate : 128 Kbps
Minimum bit rate : 128 Kbps
Channel(s) : 2 channels
Sampling rate : 48.0 KHz
Resolution : 16 bits
Stream size : 92.0 MiB (13%)
Alignment : Aligned on interleaves
Interleave, duration : 42 ms (1.00 video frame)
Interleave, preload duration : 504 ms
Writing library : LAME3.97
Encoding settings : CBR
_______________________________________________________________

________________
Description |
________________|
_______________________________________________________________
An ancient urn is found in a cemetery outside Rome. Once |
opened, it triggers a series of violent incidents: robberies, |
rapes and murders increase dramatically, while several |
mysterious, evil-looking young women coming from all over |
the world are gathering in the city. All these events are |
caused by the return of Mater Lacrimarum, the last of three |
powerful witches who have been spreading terror and death for |
centuries. Alone against an army of psychos and demons, |
Sarah Mandy, an art student who seems to have supernatural |
abilities of her own, is the only person left to prevent the |
Mother of Tears from destroying Rome |
_______________________________________________________________|

___________________
Post Information |
___________________|
________________________________
Posted by............: Noir |
Posted on............: 9/11/2008|
________________________________|
[/code]
Mother of Tears The Third Mother (2007) DvdRip Xvid {1337x Noir preview 5

Mother of Tears The Third Mother (2007) DvdRip Xvid {1337x Noir preview 6

related torrents

Torrent name

health leech seeds Size
 


comments (0)

Main Menu