Igby Goes Down 2002 DVDRIP AVI XVID AC3 5 1 (Terpripken)

  • Download 5x Faster
  • Download torrent
  • Direct Download
  • Rate this torrent +  |  -
Igby Goes Down 2002 DVDRIP AVI XVID AC3 5 1 (Terpripken)

Free and Direct Download with 300GB+ free

Torrent info

Name:Igby Goes Down 2002 DVDRIP AVI XVID AC3 5 1 (Terpripken)

Total Size: 1.01 GB

Magnet: Magnet Link

Seeds: 0

Leechers: 0

Stream: Watch Online @ Movie4u

Last Updated: 2012-08-05 20:28:21 (Update Now)

Torrent added: 2008-09-11 07:44:14

Torrent Files List

IGBY_GOES_DOWN.avi (Size: 1.01 GB) (Files: 3)


1.01 GB


1.80 KB

 Torrent downloaded from

0.05 KB

Announce URL:

Torrent description

Igby goes down is a personal tale about a 17 year old misfit boy who copes with his mother's cancer and his father's insanity by pursuing relationships with older women. Truly an intellectual, Igby is a modern day Holden Caulfield, and the world he lives in is far removed from the high standards of expectation he holds for it. Written by Dan Bloggs

Igby Slocumb, a rebellious and sarcastic seventeen year-old boy, is at war with the oppressive world of his East Coast "old money" family. With a schizophrenic father, a self-absorbed, distant mother, and a shark-like young Republican big brother, Igby figures there must be a better life out there, and he sets out to find it. After happily flunking out of several Prep Schools, Igby escapes into the bohemian underworld of Manhattan. His darkly comic trip--shared by a deviant cast of characters, including his terminally bored, part-time lover Sookie, his Godfather's trophy mistress Rachel, and smack-dealing performance artists Russel--veers from bizarre to tragic in Igby's ultimately noble attempt to keep himself from "going down." Written by Anonymous

Release Date: USA 23 May 2002 (Seattle International Film Festival)
USA 13 September 2002 (limited)
Genre: Comedy | Drama
MPAA: Rated R for language, sexuality and drug content.
Runtime: 97 min | Argentina:99 min (Buenos Aires International Festival of Independent Cinema)
Country: USA
Language: English

Director: Burr Steers
Writer (WGA): Burr Steers (written by)


Kieran Culkin ... Jason 'Igby' Slocumb, Jr.
Claire Danes ... Sookie Sapperstein
Jeff Goldblum ... D.H. Banes
Jared Harris ... Russel
Amanda Peet ... Rachel
Ryan Phillippe ... Oliver 'Ollie' Slocumb
Bill Pullman ... Jason Slocumb
Susan Sarandon ... Mimi Slocumb
Rory Culkin ... 10-Year-Old Igby
Peter Anthony Tambakis ... 13-Year-Old Oliver (as Peter Tambakis)
Bill Irwin ... Lt. Ernest Smith, Pershing Academy
Kathleen Gati ... Ida
Gannon Forrester ... Little Cadet
Celia Weston ... Bunny
Elizabeth Jagger ... Lisa Fiedler


Complete Name: Igby Goes Down---2002 DVDRIP AVI XVID AC3 5.1 (Terpripken)
Format : AVI
Format/Info : Audio Video Interleave
File size : 1.01 GiB
Duration : 1h 37mn
Overall bit rate : 1472 Kbps


Format : MPEG-4 Visual
Format profile : [email protected]
Format settings, BVOP : No
Format settings, QPel : No
Format settings, GMC : No warppoints
Format settings, Matrix : Default
Codec ID : XVID
Codec ID/Hint : XviD
Duration : 1h 37mn
Bit rate : 1268 Kbps
Width : 640 pixels
Height : 360 pixels
Display aspect ratio : 16/9
Frame rate : 29.970 fps
Original frame rate : 29.969 fps
Resolution : 8 bits
Colorimetry : 4:2:0
Scan type : Progressive
Bits/(Pixel*Frame) : 0.184
Stream size : 888 MiB (86%)
Writing library : Magic0432


Format : AC-3
Format/Info : Audio Coding 3
Codec ID : 2000
Bit rate mode : Constant
Bit rate : 192 Kbps
Channel(s) : 6 channels
Channel positions : Front: L C R, Rear: L R, LFE
Sampling rate : 48.0 KHz
Stream size : 135 MiB (13%)
Alignment : Aligned on interleaves
Interleave, duration : 32 ms (0.96 video frame)

related torrents

Torrent name

health leech seeds Size

comments (0)

Main Menu