Music Videos

Wyclef Jean Fast Car XTREMESPEEDS NET

  • Download 5x Faster
  • Download torrent
  • Direct Download
  • Rate this torrent +  |  -
Wyclef Jean Fast Car XTREMESPEEDS NET

Anonymous and Direct Download 300GB+ free


Torrent info

Name:Wyclef Jean Fast Car XTREMESPEEDS NET

Total Size: 323.22 MB

Magnet: Magnet Link

Seeds: 1

Leechers: 1

Stream: Watch Online @ Movie4u

Last Updated: 2010-12-14 11:34:28 (Update Now)

Torrent added: 2008-09-10 21:35:33




Torrent Files List


Wyclef Jean - Fast Car.mp4 (Size: 323.22 MB) (Files: 1)

 Wyclef Jean - Fast Car.mp4

323.22 MB
 

Announce URL: http://xtremespeeds.net/announce.php?passkey=tssespecialtorrentv1byxamsep2007

Torrent description

Wyclef.Jean.Fast.Car.AVC.Full.HD.1080.XTREMESPEEDS.NET (shanethegooner)

Watches nice on Playstation 3 or XBOX 360 on a nice big TV with 1080 supported.

Complete name: Wyclef.Jean.Fast.Car.AVC.Full.HD.1080
Format: MPEG-4
Format profile: Base Media / Version 2
Codec ID: mp42
File size: 323 MiB
Duration: 4mn 27s
Overall bit rate: 10.1 Mbps
Encoded date: UTC 2008-03-20 23:24:52
Tagged date : UTC 2008-03-20 23:25:10

Video

Format: AVC
Format/Info: Advanced Video Codec
Format profile: [email protected]
Format settings, CABAC: No
Format settings, ReFrames: 2 frames
Codec ID: avc1
Duration: 4mn 27s
Bit rate mode: Variable
Bit rate: 9 988 Kbps
Width: 1 920 pixels
Height: 1 080 pixels
Display aspect ratio: 16/9
Frame rate mode: Constant
Frame rate: 29.970 fps
Resolution: 24 bits
Colorimetry: 4:2:0
Scan type: Progressive
Bits/(Pixel*Frame): 0.161
Stream size: 319 MiB (99%)
Language: English
Encoded date: UTC 2008-03-20 19:29:06
Tagged date: UTC 2008-03-20 23:25:10

Audio

Format: AAC
Format/Info: Advanced Audio Codec
Format version: Version 4
Format profile: LC
Format settings, SBR: No
Codec ID: 40
Duration: 4mn 27s
Bit rate mode: Constant
Bit rate: 125 Kbps
Nominal bit rate: 128 Kbps
Channel(s): 2 channels
Channel positions: L R
Sampling rate: 48.0 KHz
Resolution: 16 bits
Stream size: 4.00 MiB (1%)
Language: English
Encoded date: UTC 2008-03-20 19:29:05
Tagged date: UTC 2008-03-20 23:25:10

related torrents

Torrent name

health leech seeds Size
 


comments (0)

Main Menu