Music - Other

EAC FLACThe NY Rock And Soul Revue Live @ The Beacontntvillage scambioetico org

  • Download 5x Faster
  • Download torrent
  • Direct Download
  • Rate this torrent +  |  -

Torrent info

Name:EAC FLACThe NY Rock And Soul Revue Live @ The Beacontntvillage scambioetico org

Total Size: 394.60 MB

Magnet: Magnet Link

Seeds: 0

Leechers: 1

Stream: Watch Online @ Movie4u

Last Updated: 2012-04-05 05:25:30 (Update Now)

Torrent added: 2008-09-10 09:40:59




Torrent Files List


01.Intro.flac (Size: 394.60 MB) (Files: 17)

 01.Intro.flac

4.65 MB

 02.Madison Time - Donald Fagen With Jeff Young & The Youngsters.flac

23.68 MB

 03.Knock On Wood - Michael McDonald, Phoebe Snow.flac

24.47 MB

 04.Green Flower Street - Donald Fagen.flac

28.00 MB

 05.Shakey Ground - Phoebe Snow.flac

23.29 MB

 06.At Last - Phoebe Snow.flac

30.31 MB

 07.Lonely Teardrops - Michael McDonald.flac

32.33 MB

 08.Drowning In The Sea Of Love - Boz Scaggs.flac

33.18 MB

 09.Driftin' Blues - Charles Brown.flac

20.49 MB

 10.Chain Lightining - Donald Fagen.flac

37.44 MB

 11.Groovin' - Eddie And David Brigati.flac

26.37 MB

 12.Minute By Minute - Michael McDonald.flac

40.57 MB

 13.People Got To Be Free - Full Cast.flac

33.20 MB

 14.Pretzel Logic - Donald Fagen With Michael McDonald.flac

29.69 MB

 15.Madison Reprise - Donald Fagen With Jeff Young & The Youngsters.flac

6.90 MB

 The New York Rock And Soul Revue - Live At The Beacon.cue

4.76 KB

 The New York Rock And Soul Revue - Live At The Beacon.log

3.36 KB
 

Announce URL: http://tracker.publicbt.com/announce

Torrent description

Title: Live At The Beacon
Year: 1991
Genre: Rock, Soul, R'n'B
Label: Giant Records

Log:

Exact Audio Copy V0.99 prebeta 4 from 23. January 2008

EAC extraction logfile from 6. August 2008, 23:38

Unknown Artist / Unknown Title

Used drive : HL-DT-STDVD-ROM GDR8164B Adapter: 0 ID: 0

Read mode : Secure
Utilize accurate stream : Yes
Defeat audio cache : Yes
Make use of C2 pointers : Yes

Read offset correction : 102
Overread into Lead-In and Lead-Out : No
Fill up missing offset samples with silence : Yes
Delete leading and trailing silent blocks : No
Null samples used in CRC calculations : No
Used interface : Native Win32 interface for Win NT & 2000

Used output format : User Defined Encoder
Selected bitrate : 768 kBit/s
Quality : High
Add ID3 tag : No
Command line compressor : C:\Programmi\Exact Audio Copy\FLAC\FLAC.EXE
Additional command line options : -6 -V -T "ARTIST=%a" -T "TITLE=%t" -T "ALBUM=%g" -T "DATE=%y" -T "TRACKNUMBER=%n" -T "GENRE=%m" -T "COMMENT=%e" %s -o %d


TOC of the extracted CD

Track | Start | Length | Start sector | End sector
---------------------------------------------------------
1 | 0:00.00 | 0:53.07 | 0 | 3981
2 | 0:53.07 | 4:18.55 | 3982 | 23386
3 | 5:11.62 | 3:55.18 | 23387 | 41029
4 | 9:07.05 | 4:39.32 | 41030 | 61986
5 | 13:46.37 | 3:39.68 | 61987 | 78479
6 | 17:26.30 | 5:31.47 | 78480 | 103351
7 | 22:58.02 | 5:24.70 | 103352 | 127721
8 | 28:22.72 | 5:29.48 | 127722 | 152444
9 | 33:52.45 | 4:08.35 | 152445 | 171079
10 | 38:01.05 | 6:27.62 | 171080 | 200166
11 | 44:28.67 | 4:22.28 | 200167 | 219844
12 | 48:51.20 | 6:28.22 | 219845 | 248966
13 | 55:19.42 | 5:18.20 | 248967 | 272836
14 | 60:37.62 | 4:58.00 | 272837 | 295186
15 | 65:35.62 | 1:08.15 | 295187 | 300301


Range status and errors

Selected range

Filename D:\Musica\flac\CD Rip\The New York Rock And Soul Revue\1991 - Live At The Beacon\Unknown Artist - Unknown Title.wav

Peak level 94.4 %
Range quality 100.0 %
Test CRC 770D204A
Copy CRC 770D204A
Copy OK

No errors occurred


AccurateRip summary

Track 1 accurately ripped (confidence 7) [9E4795D5]
Track 2 accurately ripped (confidence 7) [75982949]
Track 3 accurately ripped (confidence 6) [5659AC92]
Track 4 accurately ripped (confidence 7) [AEF4CC40]
Track 5 accurately ripped (confidence 7) [BE0634D8]
Track 6 accurately ripped (confidence 7) [D74271CE]
Track 7 accurately ripped (confidence 7) [96FFDB8B]
Track 8 accurately ripped (confidence 7) [53BDB8A6]
Track 9 accurately ripped (confidence 7) [87C7205D]
Track 10 accurately ripped (confidence 7) [3C706BBC]
Track 11 accurately ripped (confidence 7) [92CF5656]
Track 12 accurately ripped (confidence 7) [942BCC85]
Track 13 accurately ripped (confidence 7) [65F72172]
Track 14 accurately ripped (confidence 7) [981B4621]
Track 15 accurately ripped (confidence 7) [80925FAA]

All tracks accurately ripped

End of status report

related torrents

Torrent name

health leech seeds Size
 


comments (0)

Main Menu