Adventure

Papillon 1973DvDrip DemonukNIKONRG

  • Download 5x Faster
  • Download torrent
  • Direct Download
  • Rate this torrent +  |  -
Papillon 1973DvDrip DemonukNIKONRG

Anonymous and Free Direct Download 300GB+


Torrent info

Name:Papillon 1973DvDrip DemonukNIKONRG

Total Size: 699.83 MB

Magnet: Magnet Link

Seeds: 0

Leechers: 0

Stream: Watch Online @ Movie4u

Last Updated: 2012-01-19 15:23:25 (Update Now)

Torrent added: 2008-09-10 09:38:36



VPN For Torrents

Torrent Files List


Papillon.avi (Size: 699.83 MB) (Files: 3)

 Papillon.avi

699.83 MB

 Papillon.info.txt

1.33 KB

 Torrent downloaded from Demonoid.com.txt

0.05 KB
 

Announce URL: http://inferno.demonoid.com:3394/announce

Torrent description

Papillon-[1973][DvDrip]-Demonuk[NIKONRG]
__________________
MOVIE INFORMATION
__________________
TITLE.............:Papillon
DIRECTOR..........:Franklin J. Schaffner
YEAR..............: 1973
RUNTIME...........:2h 24mn
GENRE.............: Adventure | Biography | Crime | Drama
FORMAT.............:AVI
Format/Info.........:Audio Video Interleave
File size..........:700 MiB
Overal bit rate...678 Kbps
SOURCE............:PAL DVD
IMDB..............: http://www.imdb.com/title/tt0070511/
USER RATING............: 8.0/10 (21,145 votes)
__________________
VIDEO INFORMATION
__________________
Format : MPEG-4 Visual
Format profile : Streaming [email protected]
Format settings, BVOP : Yes
Format settings, QPel : No
Format settings, GMC : No warppoints
Format settings, Matrix : Custom
Codec ID : XVID
Codec ID/Hint : XviD
Duration: 2h 24mn
Bit rate : 548 Kbps
Width : 496 pixels
Height : 208 pixels
Display aspect ratio : 2.35
Frame rate : 25.000 fps
Resolution : 8 bits
Colorimetry : 4:2:0
Scan type : Progressive
Bits/(Pixel*Frame) : 0.213
Stream size: 566 MiB (81%)

__________________
AUDIO INFORMATION
__________________
Audio
Format : MPEG Audio
Format version : Version 1
Format profile : Layer 3
Codec ID : 55
Codec ID/Hint : MP3
Duration : 2h 24mn
Bit rate mode : Variable
Bit rate : 116 Kbps
Minimum bit rate : 128 Kbps
Channel(s) : 2 channels
Sampling rate : 48.0 KHz
Resolution: 16 bits
Stream size: 120 MiB (17%)
Writing library: LAME3.97
Encoding settings: ABR

__________________
MAIN CAST
__________________
Steve McQueen ...Henri 'Papillon' Charriere
Dustin Hoffman...Louis Dega
Victor Jory...Indian Chief
Don Gordon...Julot
Anthony Zerbe...Toussaint
Robert Deman...Maturette
__________________
PLOT OUTLINE
__________________
Based on the true story of Henri Charriere, also known as Papillon, which is French for 'butterfly'
(the character even sports a large tattoo of a butterfly). A petty criminal, Papillon is wrongly
convicted of murder and sentenced to life in a French penal colony in 'Guiane'
(French Guiana, South America). Papillon is determined to escape but attempt after attempt
meets with difficulty, resulting in eventual recapture. He continues his attempts to escape despite
incarcerations in solitary confinement as punishment.
__________________
Info hash:F64D6DF9449AB906DB12C5B5D915CEE0375F174E
Tracker announce: http://inferno.demonoid.com:3394/announce
Tracker announce: http://open.tracker.thepiratebay.org:80/announce
Tracker Scrape: http://inferno.demonoid.com:3394/scrape

__________________
Contents of download:

Papillon-[1973][DvDrip]-Demonuk[NIKONRG].avi (700 MiB)
Papillon.info.txt (1.33Kb)
Torrent downloaded from Demonoid.com.txt (47bytes)
___________________________________________________________________
> For Detailed Information on New Releases and Popular Request Click Here


^>>>>>>>>>>>>>>>>>>>>>>>>>>>>>>>>>>>>>>>>>>>>>>>>>>>>>>>>>>>>>>>>>>.^
^......................................................................................................@....................@......@.@@@.@...............^
^............@@...........@....@....@.......@...............................................@..................@......@................@...........^
^............@.@..........@...........@......@.......@@@@........ @..@.@.@......@...............@.......@..................@.........^
^............@..@.........@....@....@.....@....@..............@.....@@.........@......@............@........@...................@........^
^............@...@........@....@....@....@....@................@....@.............@.......@........@..........@...................@........^
^............@....@.......@....@....@...@....@..................@...@.............@.........@.....@...........@..................@.........^
^............@.....@......@....@....@@......@....................@..@.............@...........@@..............@@@@@@@............^
^............@......@.....@....@....@@......@....................@..@.............@.........@.....@...........@..............................^
^............@.......@....@....@....@...@....@...................@..@.............@........@.........@........@..............................^
^............@........@...@....@....@....@....@.................@...@.............@......@............@.......@..............................^
^............@.........@..@....@....@.....@....@...............@....@.............@....@................@.....@..............................^
^............@..........@.@....@....@......@....@.............@.....@.............@...@...................@...@..............................^
^............@...........@@....@....@.......@.....@.@.@..@......@.............@..@.....................@..@..............................^
^<<<<<<<<<<<<<<<<<<<<<<<<<<<<<<<<<<<<<<<<<<<<<<<<<<<<<<<<<<<<<<<<<<.^

related torrents

Torrent name

health leech seeds Size
 


comments (0)

Main Menu