Fantasy

Mr Destiny (1990) DVDRip MP3 ENG

  • Download 5x Faster
  • Download torrent
  • Direct Download
  • Rate this torrent +  |  -
Mr Destiny (1990) DVDRip MP3 ENG

Anonymous and Free Direct Download 300GB+


Torrent info

Name:Mr Destiny (1990) DVDRip MP3 ENG

Total Size: 700.04 MB

Magnet: Magnet Link

Seeds: 0

Leechers: 0

Stream: Watch Online @ Movie4u

Last Updated: 2012-12-21 13:19:38 (Update Now)

Torrent added: 2008-09-09 21:35:01



VPN For Torrents

Torrent Files List


Mr Destiny (1990) - DVDRip - MP3 - ENG.avi (Size: 700.04 MB) (Files: 3)

 Mr Destiny (1990) - DVDRip - MP3 - ENG.avi

700.03 MB

 Mr Destiny (1990) - DVDRip - MP3 - ENG.nfo

11.10 KB

 Tracked_by_Demonoid_com.txt

0.03 KB
 

Announce URL:

Torrent description

IMDB: http://www.imdb.com/title/tt0100201/
User Rating: 5.9/10 (4,054 votes)
Release Date: 12 October 1990 (USA) more
Genre: Fantasy | Comedy more
Tagline: Would you give up everything you have... for everything you've ever wanted?

Plot:
Larry Burrows is unhappy and feels powerless over his life. He believes his entire life could have
turned out differently had he not missed that shot in a baseball game when was a kid. One night he
meets this mysterious man, who could change his fate by offering him that alternative life he always
dreamed of. But as Burrows embarks on this journey of self discovery he realises that even this new
life has its problems and drawbacks..

Cast:

James Belushi ... Larry Joseph Burrows
Linda Hamilton ... Ellen Jane Burrows / Robertson
Michael Caine ... Mike / Mr. Destiny
Jon Lovitz ... Clip Metzler
Hart Bochner ... Niles Pender
Bill McCutcheon ... Leo Hansen
Rene Russo ... Cindy Jo Bumpers / Burrows
Jay O. Sanders ... Jackie Earle 'Cement Head' Bumpers
Maury Chaykin ... Guzelman
Pat Corley ... Harry Burrows
Douglas Seale ... Boswell
Courteney Cox ... Jewel Jagger


Screenshots:

Mr  Destiny (1990)   DVDRip   MP3   ENG preview 0
Mr  Destiny (1990)   DVDRip   MP3   ENG preview 1
Mr  Destiny (1990)   DVDRip   MP3   ENG preview 2
Mr  Destiny (1990)   DVDRip   MP3   ENG preview 3



General
Complete name : Mr Destiny (1990) - DVDRip - MP3 - ENG.avi
Format : AVI
Source : NTSC DVD
File size : 700 MiB
Duration : 1h 50mn
Overal bit rate : 886 Kbps
IAS1 : English

Video
Format : MPEG-4 Visual
Codec ID : XVID
Duration : 1h 50mn
Bit rate : 767 Kbps
Width : 608 pixels
Height : 336 pixels
Display aspect ratio : 16/9
Frame rate : 23.976 fps
Resolution : 8 bits
Colorimetry : 4:2:0
Scan type : Progressive
Bits/(Pixel*Frame) : 0.157
Stream size : 606 MiB (87%)

Audio
Format : MPEG Audio
Format version : Version 1
Format profile : Layer 3
Codec ID/Hint : MP3
Duration : 1h 50mn
Bit rate mode : Constant
Bit rate : 112 Kbps
Channel(s) : 2 channels
Sampling rate : 44.1 KHz
Resolution : 16 bits
Stream size : 88.5 MiB (13%)
Writing library : LAME3.97
Encoding settings : CBR



Trackers:

http://inferno.demonoid.com:3394/announce
http://www.torrent-downloads.to:5869/announce
http://open.tracker.thepiratebay.org:80/announce
http://tpb.tracker.thepiratebay.org:80/announce
http://vip.tracker.thepiratebay.org/announce

Info Hash: B29F67BEA38CD98D35001D96F5494BD7F483C71A

related torrents

Torrent name

health leech seeds Size

Mr Destiny (1990)

0 0 692.00 MB 0

Mr Destiny (1990) rmvb

0 6 348.38 MB 0
 


comments (0)

Main Menu