Action

Alone In The Dark 2 (2009) SCR Xvid {1337x} Noir

  • Download 5x Faster
  • Download torrent
  • Direct Download
  • Rate this torrent +  |  -
Alone In The Dark 2 (2009) SCR Xvid {1337x} Noir

Anonymous and Direct Download 300GB+ free


Torrent info

Name:Alone In The Dark 2 (2009) SCR Xvid {1337x} Noir

Total Size: 708.58 MB

Magnet: Magnet Link

Seeds: 0

Leechers: 2

Stream: Watch Online @ Movie4u

Last Updated: 2010-12-04 10:18:51 (Update Now)

Torrent added: 2008-09-09 15:08:58




Torrent Files List


1337x.Org.txt (Size: 708.58 MB) (Files: 3)

 1337x.Org.txt

0.03 KB

 Alone In The Dark 2 (2009) [SCR] [Xvid] {1337x}-Noir.avi

708.57 MB

 Noir.nfo

5.11 KB
 

Announce URL: http://genesis.1337x.org:1337/announce

Torrent description

Alone In The Dark 2 (2009) SCR Xvid {1337x} Noir preview 0

Screenshots

Alone In The Dark 2 (2009) SCR Xvid {1337x} Noir preview 1

Alone In The Dark 2 (2009) SCR Xvid {1337x} Noir preview 2

Alone In The Dark 2 (2009) SCR Xvid {1337x} Noir preview 3

Alone In The Dark 2 (2009) SCR Xvid {1337x} Noir preview 4

[code]
______________________________________________________________
▓▓▓▓▓▓ |
▓█████▓ ▓▓▓▓ |
▓██████▓ ▓▓███▓ |
▓▓██████▓ ▓████▓▓▓▓▓▓ |
██████▓ ▓██▒█▓▓███▓▓ ▓▓▓▓▓▓▓▓▓▓▓▓▓ |
▓██▒████▓ ▓██▒█▓██████▓▓███▓███▓███▓▓ |
▓██▒▒████▓ ▓██▒███▒▒▒▒██▓████████████▓ |
▓██▒▒▒▒███▓ ▓██▒██▒▒▒▒▒▒███▒▒▒██▒█▒▒▒██▓▓ |
▓██▒▒██▒▒██▓▓██▒██▒▒█▒▒▒▒███████▒▒▒▒▒▒██▓ |
▓██▒▒███▒▒██▓██▒██▒█▓█▒▒▒██▒▒▒██▒▒██▒▒▒█▓ |
▓██▒▒████▒▒████▒██▒█▓█▒▒▒██▒▒▒██▒▒███▒██▓ |
▓██▒▒█▓███▒▒███▒██▒▒█▒▒▒▒██▒▒▒██▒▒██████▓ |
▓██▒▒█▓▓███▒▒██▒██▒▒▒▒▒▒▒██▒▒▒██▒▒██▓███▓ |
▓▓██▒▒█▓ ▓███▒▒█▒██▒▒▒▒▒▒▒███████▒▒██▓▓▓▓▓ |
▓▓███▒▒█▓ ▓███▒▒▒███▒▒▒▒▒██▓▓▓▓██▒▒██▓ |
▓████▒▒█▓ ▓███▒▒█████████▓▓ ▓██▒▒██▓ |
▓████▒▒█▓ ▓███▒█▓██████▓▓▓ ▓██████▓ |
▓███████▓ ▓▓████▓▓▓▓▓▓▓▓ ▓▓▓▓▓▓▓▓ |
▓▓▓▓▓▓▓▓▓ ▓▓▓▓▓ |
______________________________________________________________|



******************************
* Alone In The Dark 2 (2009) *
******************************

________________________
General Information |
________________________|
_______________________________________________________________
Type : Movie |
Format : AVI |
Format/Info : Audio Video Interleave |
File size : 709 MiB |
Duration : 1h 26mn |
Subtitles : |
Source : Dvd Screener |
Genre : Action | Horror |
IMDB Link : http://www.imdb.com/title/tt0913951/ |
Rating : |
_______________________________________________________________|
Video
Format : MPEG-4 Visual
Format profile : Streaming [email protected]
Format settings, BVOP : Yes
Format settings, QPel : Yes
Format settings, GMC : 3 warppoints
Format settings, Matrix : Default
Muxing mode : Packet Bitstream
Codec ID : DX50
Codec ID/Hint : DivX 5
Duration : 1h 26mn
Bit rate : 1 009 Kbps
Width : 608 pixels
Height : 336 pixels
Display aspect ratio : 16/9
Frame rate : 25.000 fps
Resolution : 24 bits
Colorimetry : 4:2:0
Scan type : Progressive
Bits/(Pixel*Frame) : 0.198
Stream size : 623 MiB (88%)
Writing library : XviD 1.2.0SMP (UTC 2006-01-08)
_______________________________________________________________
Audio
Format : MPEG Audio
Format version : Version 1
Format profile : Layer 3
Codec ID : 55
Codec ID/Hint : MP3
Duration : 1h 26mn
Bit rate mode : Constant
Bit rate : 128 Kbps
Minimum bit rate : 128 Kbps
Channel(s) : 2 channels
Sampling rate : 48.0 KHz
Resolution : 16 bits
Stream size : 79.1 MiB (11%)
Alignment : Aligned on interleaves
Interleave, duration : 40 ms (1.00 video frame)
Interleave, preload duration : 504 ms
Writing library : LAME3.97
Encoding settings : CBR
_______________________________________________________________
________________
Description |
________________|
_______________________________________________________________
The sequel to one of the greatest accomplishments ever |
captured on film. You are Staff Sargent Max Fightmaster. |
You are angry and believe me people won\'t like you when |
you are angry. Aliens have abducted your dog, and they |
are going to pay. Armed with only his trusty mythical |
key-sword-tar he will embark on an adventure of epic |
proportions. |
_______________________________________________________________|
___________________
Post Information |
___________________|
________________________________
Posted by............: Noir |
Posted on............: 9/09/2008|
________________________________|
[/code]
Alone In The Dark 2 (2009) SCR Xvid {1337x} Noir preview 5

Alone In The Dark 2 (2009) SCR Xvid {1337x} Noir preview 6

related torrents

Torrent name

health leech seeds Size
 


comments (0)

Main Menu