WWE - Wrestling

TNA iMPACT 04 09 2008

  • Download 5x Faster
  • Download torrent
  • Direct Download
  • Rate this torrent +  |  -
TNA iMPACT 04 09 2008

Anonymous and Direct Download 300GB+ free


Torrent info

Name:TNA iMPACT 04 09 2008

Total Size: 698.43 MB

Magnet: Magnet Link

Seeds: 2

Leechers: 1

Stream: Watch Online @ Movie4u

Last Updated: 2010-01-22 12:44:25 (Update Now)

Torrent added: 2008-09-09 06:46:40




Torrent Files List


TNA iMPACT 04 09 2008.avi (Size: 698.43 MB) (Files: 1)

 TNA iMPACT 04 09 2008.avi

698.43 MB
 

Announce URL: http://tracker.tntvillage.scambioetico.org:2710/announce

Torrent description

[SatRiP - XviD - Mp3 - ENG]TNA iMPACT 04-09-2008 [Tntvillage.Scambioetico]

Image Link

[size=12]TNA iMPACT 04 Settembre 2008[/size]

Image Link

TNA Impact
Impact Zone Arena
Universal Studios
Orlando, Florida
September 4, 2008

Image Link

NESSUNA CARD RILASCIATA

Image Link

Image Link

Image Link

[cita=MediaInfo]General
Complete name :TNA iMPACT 04-09-2008.avi
Format : AVI
Format/Info : Audio Video Interleave
File size : 699 MiB
Duration : 1h 28mn
Overall bit rate : 1103 Kbps
Writing library : VirtualDub build 0/release

Video
Format : MPEG-4 Visual
Format profile : Streaming [email protected]
Format settings, BVOP : Yes
Format settings, QPel : No
Format settings, GMC : No warppoints
Format settings, Matrix : Default
Muxing mode : Packet Bitstream
Codec ID : XVID
Codec ID/Hint : XviD
Duration : 1h 28mn
Bit rate : 961 Kbps
Width : 512 pixels
Height : 384 pixels
Display aspect ratio : 4/3
Frame rate : 29.970 fps
Resolution : 8 bits
Colorimetry : 4:2:0
Scan type : Progressive
Bits/(Pixel*Frame) : 0.163
Stream size : 610 MiB (87%)
Writing library : XviD 1.1.2 (UTC 2006-11-01)

Audio
Format : MPEG Audio
Format version : Version 1
Format profile : Layer 3
Codec ID : 55
Codec ID/Hint : MP3
Duration : 1h 28mn
Bit rate mode : Variable
Bit rate : 128 Kbps
Minimum bit rate : 112 Kbps
Channel(s) : 2 channels
Sampling rate : 48.0 KHz
Resolution : 16 bits
Stream size : 81.1 MiB (12%)
Alignment : Aligned on interleaves
Interleave, duration : 24 ms (0.72 video frame)
Interleave, preload duration : 468 ms
Writing library : LAME3.97b
Encoding settings : VBR (mtrh)

[/cita]

Image Link

24/7 Fino a 20 Completi 300 kb/s

Image Link

!!GRAZIE AD XWT per il File!!

Visit http://www.tntvillage.scambioetico.org/

related torrents

Torrent name

health leech seeds Size
 


comments (0)

Main Menu