Drama

Seabiscuit 2003 DVDRIP AVI XVID AC3 5 1 (Terpripken)

  • Download 5x Faster
  • Download torrent
  • Direct Download
  • Rate this torrent +  |  -
Seabiscuit 2003 DVDRIP AVI XVID AC3 5 1 (Terpripken)

Anonymous and Free Direct Download 300GB+


Torrent info

Name:Seabiscuit 2003 DVDRIP AVI XVID AC3 5 1 (Terpripken)

Total Size: 1.87 GB

Magnet: Magnet Link

Seeds: 0

Leechers: 0

Stream: Watch Online @ Movie4u

Last Updated: 2010-09-22 07:48:16 (Update Now)

Torrent added: 2008-09-09 03:35:58



VPN For Torrents

Torrent Files List


SEABISCUIT---2003 DVDRIP AVI XVID AC3 5.1 (Terpripken).avi (Size: 1.87 GB) (Files: 3)

 SEABISCUIT---2003 DVDRIP AVI XVID AC3 5.1 (Terpripken).avi

1.87 GB

 SEABISCUIT.avi.txt

1.80 KB

 Torrent downloaded from Demonoid.com.txt

0.05 KB
 

Announce URL: http://inferno.demonoid.com:3394/announce

Torrent description

In an era when Americans were in great need of heroic figures to help them forget their troubles, SEABISCUIT comes to the rescue. The picture relates a moving story of friendship and devotion in rehabilitating the main characters'fractured lives, as it interweaves the interactions between horse, jockey, trainer and owner and their adoring fans. The film accurately portrays the real people and events of those troubled times and how Seabiscuit "fixed us, every one of us." Written by Dale Roloff


Release Date: 25 July 2003 (USA)
Genre: Drama | History | Sport
MPAA: Rated PG-13 for some sexual situations and violent sports-related images.
Runtime: 141 min
Country: USA
Language: English

Director: Gary Ross
Writers (WGA):Laura Hillenbrand (book) Gary Ross (screenplay)

Cast

David McCullough ... Narrator
Jeff Bridges ... Charles Howard
Paul Vincent O'Connor ... Bicycle Supervisor
Chris Cooper ... Tom Smith
Michael Ensign ... Steamer Owner
James Keane ... Car Customer
Valerie Mahaffey ... Annie Howard
David Doty ... Land Broker
Carl M. Craig ... Sam (as Kingston DuCoeur)
Michael O'Neill ... Mr. Pollard
Annie Corley ... Mrs. Pollard
Michael Angarano ... Young Red Pollard
Cameron Bowen ... Pollard Child
Noah Luke ... Pollard Child
Mariah Bess ... Pollard Child
Jamie Lee Redmon ... Pollard Child
Ed Lauter ... Charles Strub
Gianni Russo ... Alberto Gianini
Sam Bottoms ... Mr. Blodget
Tobey Maguire ... Red Pollard

General

Complete name : Seabiscuit---2003 DVDRIP AVI XVID AC3 5.1 (Terpripken)
Format : AVI
Format/Info : Audio Video Interleave
File size : 1.87 GiB
Duration : 2h 20mn
Overall bit rate : 1910 Kbps

Video

Format : MPEG-4 Visual
Format profile : [email protected]
Format settings, BVOP : No
Format settings, QPel : No
Format settings, GMC : No warppoints
Format settings, Matrix : Default
Codec ID : XVID
Codec ID/Hint : XviD
Duration : 2h 20mn
Bit rate : 1674 Kbps
Width : 640 pixels
Height : 360 pixels
Display aspect ratio : 16/9
Frame rate : 29.970 fps
Original frame rate : 29.969 fps
Resolution : 8 bits
Colorimetry : 4:2:0
Scan type : Progressive
Bits/(Pixel*Frame) : 0.242
Stream size : 1.64 GiB (88%)
Writing library : Magic0432

Audio

Format : AC-3
Format/Info : Audio Coding 3
Codec ID : 2000
Bit rate mode : Constant
Bit rate : 224 Kbps
Channel(s) : 6 channels
Channel positions : Front: L C R, Rear: L R, LFE
Sampling rate : 48.0 KHz
Stream size : 225 MiB (12%)
Alignment : Aligned on interleaves
Interleave, duration : 32 ms (0.96 video frame)

related torrents

Torrent name

health leech seeds Size
 


comments (0)

Main Menu