Animation

WALLE 2008 2Audio DVDScr KINODOME ELEKTRI4KA nfo

  • Download 5x Faster
  • Download torrent
  • Direct Download
  • Rate this torrent +  |  -
WALLE 2008 2Audio DVDScr KINODOME ELEKTRI4KA nfo

Anonymous and free Direct Download 300GB+


Torrent info

Name:WALLE 2008 2Audio DVDScr KINODOME ELEKTRI4KA nfo

Total Size: 1.38 GB

Magnet: Magnet Link

Seeds: 3

Leechers: 13

Stream: Watch Online @ Movie4u

Last Updated: 2010-10-07 15:15:47 (Update Now)

Torrent added: 2008-09-08 19:42:18



SpyOFF VPN

Torrent Files List


Sample (Size: 1.38 GB) (Files: 35)

 Sample

  Sample.avi

9.91 MB

 WALLE.2008.2Audio.DVDScr.KINODOME_ELEKTRI4KA.nfo

2.47 KB

 WALLE.2008.2Audio.DVDScr.KINODOME_ELEKTRI4KA.r00

45.00 MB

 WALLE.2008.2Audio.DVDScr.KINODOME_ELEKTRI4KA.r01

45.00 MB

 WALLE.2008.2Audio.DVDScr.KINODOME_ELEKTRI4KA.r02

45.00 MB

 WALLE.2008.2Audio.DVDScr.KINODOME_ELEKTRI4KA.r03

45.00 MB

 WALLE.2008.2Audio.DVDScr.KINODOME_ELEKTRI4KA.r04

45.00 MB

 WALLE.2008.2Audio.DVDScr.KINODOME_ELEKTRI4KA.r05

45.00 MB

 WALLE.2008.2Audio.DVDScr.KINODOME_ELEKTRI4KA.r06

45.00 MB

 WALLE.2008.2Audio.DVDScr.KINODOME_ELEKTRI4KA.r07

45.00 MB

 WALLE.2008.2Audio.DVDScr.KINODOME_ELEKTRI4KA.r08

45.00 MB

 WALLE.2008.2Audio.DVDScr.KINODOME_ELEKTRI4KA.r09

45.00 MB

 WALLE.2008.2Audio.DVDScr.KINODOME_ELEKTRI4KA.r10

45.00 MB

 WALLE.2008.2Audio.DVDScr.KINODOME_ELEKTRI4KA.r11

45.00 MB

 WALLE.2008.2Audio.DVDScr.KINODOME_ELEKTRI4KA.r12

45.00 MB

 WALLE.2008.2Audio.DVDScr.KINODOME_ELEKTRI4KA.r13

45.00 MB

 WALLE.2008.2Audio.DVDScr.KINODOME_ELEKTRI4KA.r14

45.00 MB

 WALLE.2008.2Audio.DVDScr.KINODOME_ELEKTRI4KA.r15

45.00 MB

 WALLE.2008.2Audio.DVDScr.KINODOME_ELEKTRI4KA.r16

45.00 MB

 WALLE.2008.2Audio.DVDScr.KINODOME_ELEKTRI4KA.r17

45.00 MB

 WALLE.2008.2Audio.DVDScr.KINODOME_ELEKTRI4KA.r18

45.00 MB

 WALLE.2008.2Audio.DVDScr.KINODOME_ELEKTRI4KA.r19

45.00 MB

 WALLE.2008.2Audio.DVDScr.KINODOME_ELEKTRI4KA.r20

45.00 MB

 WALLE.2008.2Audio.DVDScr.KINODOME_ELEKTRI4KA.r21

45.00 MB

 WALLE.2008.2Audio.DVDScr.KINODOME_ELEKTRI4KA.r22

45.00 MB

 WALLE.2008.2Audio.DVDScr.KINODOME_ELEKTRI4KA.r23

45.00 MB

 WALLE.2008.2Audio.DVDScr.KINODOME_ELEKTRI4KA.r24

45.00 MB

 WALLE.2008.2Audio.DVDScr.KINODOME_ELEKTRI4KA.r25

45.00 MB

 WALLE.2008.2Audio.DVDScr.KINODOME_ELEKTRI4KA.r26

45.00 MB

 WALLE.2008.2Audio.DVDScr.KINODOME_ELEKTRI4KA.r27

45.00 MB

 WALLE.2008.2Audio.DVDScr.KINODOME_ELEKTRI4KA.r28

45.00 MB

 WALLE.2008.2Audio.DVDScr.KINODOME_ELEKTRI4KA.r29

45.00 MB

 WALLE.2008.2Audio.DVDScr.KINODOME_ELEKTRI4KA.r30

5.08 MB

 WALLE.2008.2Audio.DVDScr.KINODOME_ELEKTRI4KA.rar

45.00 MB

 WALLE.2008.2Audio.DVDScr.KINODOME_ELEKTRI4KA.sfv

4.65 KB
 

Announce URL: http://mazysmadhouse.net/announce.php?passkey=dd5a2e18d30dfe8f952748d8b711b6f5

Torrent description

English and Russian Audio channels


General
-------
Format : AVI
Format/Info : Audio Video Interleave
File size : 1.37 GiB
Duration : 1h 36mn
Overal bit rate : 2018 Kbps
Writing application : VirtualDubMod 1.5.10.2 (build 2542/release)
Writing library : VirtualDubMod build 2542/release

Video
-----
Format : MPEG-4 Visual
Format profile : Streaming [email protected]
Format settings, BVOP : Yes
Format settings, QPel : No
Format settings, GMC : No warpoints
Format settings, Matrix : Default
Muxing mode : Packet Bitstream
Codec ID : XVID
Codec ID/Hint : XviD
Duration : 1h 36mn
Bit rate : 1745 Kbps
Width : 688 pixels
Height : 288 pixels
Display aspect ratio : 2.35
Frame rate : 29.970 fps
Resolution : 8 bits
Colorimetry : 4:2:0
Scan type : Progressive
Bits/(Pixel*Frame) : 0.294
Stream size : 1.18 GiB
Writing library : XviD 1.1.0 (UTC 2005-11-22)

Audio #1
Format : MPEG Audio
Format version : Version 1
Format profile : Layer 3
Codec ID : 55
Codec ID/Hint : MP3
Duration : 1h 36mn
Bit rate mode : Constant
Bit rate : 128 Kbps
Channel(s) : 2 channels
Sampling rate : 48.0 KHz
Resolution : 16 bits
Stream size : 88.8 MiB

Audio #2
Format : MPEG Audio
Format version : Version 1
Format profile : Layer 3
Codec ID : 55
Codec ID/Hint : MP3
Duration : 1h 36mn
Bit rate mode : Constant
Bit rate : 128 Kbps
Channel(s) : 2 channels
Sampling rate : 44.1 KHz
Resolution : 16 bits
Video delay : 16ms
Stream size : 88.8 MiB

related torrents

Torrent name

health leech seeds Size
 


comments (0)

Main Menu