TV - Other

Wlatcy Moch S05E01 PL PDTV XviD ER

  • Download 5x Faster
  • Download torrent
  • Direct Download
  • Rate this torrent +  |  -
Wlatcy Moch S05E01 PL PDTV XviD ER

Anonymous and Free Direct Download 300GB+


Torrent info

Name:Wlatcy Moch S05E01 PL PDTV XviD ER

Total Size: 175.03 MB

Magnet: Magnet Link

Seeds: 17

Leechers: 53

Stream: Watch Online @ Movie4u

Last Updated: 2010-10-07 11:41:20 (Update Now)

Torrent added: 2008-09-08 09:44:18



VPN For Torrents

Torrent Files List


Wlatcy.Moch.S05E01.PL.PDTV.XviD-ER.avi (Size: 175.03 MB) (Files: 2)

 Wlatcy.Moch.S05E01.PL.PDTV.XviD-ER.avi

175.02 MB

 Wlatcy.Moch.S05E01.PL.PDTV.XviD-ER.nfo

10.62 KB
 

Announce URL: http://tpb.tracker.thepiratebay.org:80/announce

Torrent description

Zajkowski wpada w wielkie k?opoty zdrowotne, spowodowane wymy?ln? egzekucj?, Ch?opaki chc? zebrac kaske na operacje aby nie pój?? do mamra, Czesio lubi zielone

Format : AVI
Format/Info : Audio Video Interleave
File size : 175 MiB
Duration : 20mn 3s
Overall bit rate : 1 220 Kbps
Writing application : VirtualDubMod 1.5.10.2 (build 2540/release)
Writing library : VirtualDubMod build 2540/release

Video
Format : MPEG-4 Visual
Format profile : Streaming [email protected]
Format settings, BVOP : Yes
Format settings, QPel : No
Format settings, GMC : No warppoints
Format settings, Matrix : Default
Muxing mode : Packet Bitstream
Codec ID : XVID
Codec ID/Hint : XviD
Duration : 20mn 3s
Bit rate : 1 072 Kbps
Width : 576 pixels
Height : 320 pixels
Display aspect ratio : 16/9
Frame rate : 25.000 fps
Resolution : 24 bits
Colorimetry : 4:2:0
Scan type : Progressive
Bits/(Pixel*Frame) : 0.233
Stream size : 154 MiB (88%)
Writing library : XviD 1.1.2 (UTC 2006-11-01)

Audio
Format : MPEG Audio
Format version : Version 1
Format profile : Layer 3
Codec ID : 55
Codec ID/Hint : MP3
Duration : 20mn 3s
Bit rate mode : Variable
Bit rate : 135 Kbps
Nominal bit rate : 128 Kbps
Channel(s) : 2 channels
Sampling rate : 48.0 KHz
Resolution : 16 bits
Stream size : 19.4 MiB (11%)
Alignment : Aligned on interleaves
Interleave, duration : 24 ms (0.60 video frame)
Interleave, preload duration : 468 ms
Writing library : LAME3.90.
Encoding settings : ABR

related torrents

Torrent name

health leech seeds Size
 


comments (0)

Main Menu