Action

The Great Escape 1963DvDrip H 264 DemonukNIKONRG

  • Download 5x Faster
  • Download torrent
  • Direct Download
  • Rate this torrent +  |  -
The Great Escape 1963DvDrip H 264 DemonukNIKONRG

Anonymous and Free Direct Download


Torrent info

Name:The Great Escape 1963DvDrip H 264 DemonukNIKONRG

Total Size: 697.43 MB

Magnet: Magnet Link

Seeds: 0

Leechers: 0

Stream: Watch Online @ Movie4u

Last Updated: 2015-07-27 00:25:30 (Update Now)

Torrent added: 2008-09-08 07:42:45



VPN For Torrents

Torrent Files List


The Great Escape.DVDRip.avi (Size: 697.43 MB) (Files: 3)

 The Great Escape.DVDRip.avi

697.43 MB

 The Great Escape.info.txt

1.34 KB

 Torrent downloaded from Demonoid.com.txt

0.05 KB
 

tracker

leech seeds
 

Torrent description

The Great Escape-[1963][DvDrip-H.264]-Demonuk[NIKONRG]
__________________
MOVIE INFORMATION
__________________
TITLE.............:The Great Escape
DIRECTOR..........:John Sturges
YEAR..............: 1963
RUNTIME...........:2h 45mn
GENRE.............: Action | Adventure | Drama | History | Thriller | War
FORMAT.............:AVI
Format/Info.........:Audio Video Interleave
File size..........:697 MiB
Overal bit rate....591 Kbps
SOURCE............:PAL DVD
IMDB..............: http://www.imdb.com/title/tt0057115/
USER RATING............: 8.4/10 (45,875 votes)
__________________
VIDEO INFORMATION
__________________
Format: AVC
Format/Info: Advanced Video Codec
Format profile : [email protected]
Format settings, CABAC : No
Format settings, ReFrames: 1 frame
Codec ID: H264
Duration: 2h 45mn
Bit rate: 388 Kbps
Width: 608 pixels
Height: 256 pixels
Display aspect ratio: 2.35
Frame rate: 25.000 fps
Resolution: 24 bits
Colorimetry: 4:2:0
Scan type: Progressive
Bits/(Pixel*Frame): 0.100
Stream size : 458 MiB (66%)
Writing library : x264 core 60

__________________
AUDIO INFORMATION
__________________
Audio
Format: AC-3
Format/Info: Audio Coding 3
Codec ID: 2000
Duration: 2h 45mn
Bit rate mode: Constant
Bit rate: 192 Kbps
Channel(s): 2 channels
Channel positions: L R
Sampling rate: 48.0 KHz
Stream size: 227 MiB (32%)


__________________
MAIN CAST
__________________
Steve McQueen ... Capt. Hilts "The Cooler King"
James Garner ... Flight Lt. Hendley "The Scrounger"
Richard Attenborough... Squadron Leader Roger Bartlett "Big X"
James Donald ... Group Capt. Ramsey "The SBO"
Charles Bronson ... Flight Lt. Danny Velinski "The Tunnel King"
Donald Pleasence... Flight Lt. Colin Blythe "The Forger"
James Coburn ... Flying Officer Louis Sedgwick "The Manufacturer"
Hannes Messemer ... Col. von Luger
David McCallum ... Lt. Cmdr. Eric Ashley-Pitt "Dispersal"
Gordon Jackson ... Flight Lt. Sandy MacDonald "Intelligence"
__________________
PLOT OUTLINE
__________________
Based on a true story, "The Great Escape" deals with the largest Allied escape attempt from a German
POW camp during the Second World War. The first part of the film focuses on the escape efforts within
the camp and the process of secretly digging an escape tunnel. The second half of the film deals with the
massive effort by the German Gestapo to track down the over 70 escaped prisoners who are at this
point throughout the Third Reich attempting to make their way to England and various neutral
countries.
__________________
Info hash:E2EB2138946BFEC71A4598CDBDC288D94C825BAB
Tracker announce: http://inferno.demonoid.com:3394/announce
Tracker announce: http://open.tracker.thepiratebay.org:80/announce
Tracker Scrape: http://inferno.demonoid.com:3394/scrape

__________________
Contents of download:

The Great Escape-[1963][DvDrip]-Demonuk[NIKONRG].avi (697 MiB)
The Great Escape.info.txt (1.33Kb)
Torrent downloaded from Demonoid.com.txt (47bytes)
___________________________________________________________________
> For Detailed Information on New Releases and Popular Request Click Here


^>>>>>>>>>>>>>>>>>>>>>>>>>>>>>>>>>>>>>>>>>>>>>>>>>>>>>>>>>>>>>>>>>>.^
^.......................................[email protected][email protected]@[email protected]@@[email protected]^
^[email protected]@[email protected]@[email protected]@[email protected][email protected]@[email protected]^
^[email protected]@[email protected]@[email protected]@@@@........ @[email protected]@[email protected]@[email protected]@[email protected]^
^[email protected]@[email protected]@[email protected]@[email protected]@[email protected]@[email protected]@[email protected]@[email protected]^
^[email protected]@[email protected]@[email protected]@[email protected]@[email protected]@[email protected]@[email protected]@........^
^[email protected]@[email protected]@[email protected]@[email protected]@[email protected]@[email protected]@[email protected]@.........^
^[email protected]@[email protected]@[email protected]@[email protected]@[email protected]@[email protected]@[email protected]@@@@@@............^
^[email protected]@[email protected]@[email protected]@[email protected]@[email protected]@[email protected]@[email protected]^
^[email protected]@[email protected]@[email protected]@[email protected]@[email protected]@[email protected]@[email protected]^
^[email protected]@[email protected]@[email protected]@[email protected]@[email protected]@[email protected]@[email protected]^
^[email protected]@[email protected]@[email protected]@[email protected]@[email protected]@[email protected]@[email protected]^
^[email protected]@[email protected]@[email protected]@[email protected]@[email protected]@[email protected]@[email protected]......................^
^[email protected]@@[email protected]@[email protected]@[email protected]@[email protected]@[email protected]@[email protected]@..............................^
^<<<<<<<<<<<<<<<<<<<<<<<<<<<<<<<<<<<<<<<<<<<<<<<<<<<<<<<<<<<<<<<<<<.^



related torrents

Torrent name

health leech seeds Size
 


comments (0)

Main Menu