Animation

Cars TR EN AC3 DvDRip XviD TLine,mazysmadhouse net

  • Download 5x Faster
  • Download torrent
  • Direct Download
  • Rate this torrent +  |  -
Cars TR EN AC3 DvDRip XviD TLine,mazysmadhouse net

Anonymous and Free Direct Download 300GB+


Torrent info

Name:Cars TR EN AC3 DvDRip XviD TLine,mazysmadhouse net

Total Size: 1.38 GB

Magnet: Magnet Link

Seeds: 1

Leechers: 1

Stream: Watch Online @ Movie4u

Last Updated: 2010-12-25 17:53:47 (Update Now)

Torrent added: 2008-09-07 10:44:32



VPN For Torrents

Torrent Files List


Cars.TR-EN AC3.DvDRip.XviD-TLine.cd1 (Size: 1.38 GB) (Files: 103)

 Cars.TR-EN AC3.DvDRip.XviD-TLine.cd1

  TLine-ca.r00

14.31 MB

  TLine-ca.r01

14.31 MB

  TLine-ca.r02

14.31 MB

  TLine-ca.r03

14.31 MB

  TLine-ca.r04

14.31 MB

  TLine-ca.r05

14.31 MB

  TLine-ca.r06

14.31 MB

  TLine-ca.r07

14.31 MB

  TLine-ca.r08

14.31 MB

  TLine-ca.r09

14.31 MB

  TLine-ca.r10

14.31 MB

  TLine-ca.r11

14.31 MB

  TLine-ca.r12

14.31 MB

  TLine-ca.r13

14.31 MB

  TLine-ca.r14

14.31 MB

  TLine-ca.r15

14.31 MB

  TLine-ca.r16

14.31 MB

  TLine-ca.r17

14.31 MB

  TLine-ca.r18

14.31 MB

  TLine-ca.r19

14.31 MB

  TLine-ca.r20

14.31 MB

  TLine-ca.r21

14.31 MB

  TLine-ca.r22

14.31 MB

  TLine-ca.r23

14.31 MB

  TLine-ca.r24

14.31 MB

  TLine-ca.r25

14.31 MB

  TLine-ca.r26

14.31 MB

  TLine-ca.r27

14.31 MB

  TLine-ca.r28

14.31 MB

  TLine-ca.r29

14.31 MB

  TLine-ca.r30

14.31 MB

  TLine-ca.r31

14.31 MB

  TLine-ca.r32

14.31 MB

  TLine-ca.r33

14.31 MB

  TLine-ca.r34

14.31 MB

  TLine-ca.r35

14.31 MB

  TLine-ca.r36

14.31 MB

  TLine-ca.r37

14.31 MB

  TLine-ca.r38

14.31 MB

  TLine-ca.r39

14.31 MB

  TLine-ca.r40

14.31 MB

  TLine-ca.r41

14.31 MB

  TLine-ca.r42

14.31 MB

  TLine-ca.r43

14.31 MB

  TLine-ca.r44

14.31 MB

  TLine-ca.r45

14.31 MB

  TLine-ca.r46

14.31 MB

  TLine-ca.r47

13.17 MB

  TLine-ca.rar

14.31 MB

  TLine-ca.sfv

3.59 KB

 Cars.TR-EN AC3.DvDRip.XviD-TLine.cd2

  TLine-ca.r00

14.31 MB

  TLine-ca.r01

14.31 MB

  TLine-ca.r02

14.31 MB

  TLine-ca.r03

14.31 MB

  TLine-ca.r04

14.31 MB

  TLine-ca.r05

14.31 MB

  TLine-ca.r06

14.31 MB

  TLine-ca.r07

14.31 MB

  TLine-ca.r08

14.31 MB

  TLine-ca.r09

14.31 MB

  TLine-ca.r10

14.31 MB

  TLine-ca.r11

14.31 MB

  TLine-ca.r12

14.31 MB

  TLine-ca.r13

14.31 MB

  TLine-ca.r14

14.31 MB

  TLine-ca.r15

14.31 MB

  TLine-ca.r16

14.31 MB

  TLine-ca.r17

14.31 MB

  TLine-ca.r18

14.31 MB

  TLine-ca.r19

14.31 MB

  TLine-ca.r20

14.31 MB

  TLine-ca.r21

14.31 MB

  TLine-ca.r22

14.31 MB

  TLine-ca.r23

14.31 MB

  TLine-ca.r24

14.31 MB

  TLine-ca.r25

14.31 MB

  TLine-ca.r26

14.31 MB

  TLine-ca.r27

14.31 MB

  TLine-ca.r28

14.31 MB

  TLine-ca.r29

14.31 MB

  TLine-ca.r30

14.31 MB

  TLine-ca.r31

14.31 MB

  TLine-ca.r32

14.31 MB

  TLine-ca.r33

14.31 MB

  TLine-ca.r34

14.31 MB

  TLine-ca.r35

14.31 MB

  TLine-ca.r36

14.31 MB

  TLine-ca.r37

14.31 MB

  TLine-ca.r38

14.31 MB

  TLine-ca.r39

14.31 MB

  TLine-ca.r40

14.31 MB

  TLine-ca.r41

14.31 MB

  TLine-ca.r42

14.31 MB

  TLine-ca.r43

14.31 MB

  TLine-ca.r44

14.31 MB

  TLine-ca.r45

14.31 MB

  TLine-ca.r46

14.31 MB

  TLine-ca.r47

14.22 MB

  TLine-ca.rar

14.31 MB

  TLine-ca.sfv

3.59 KB

 sample

  sample.avi

7.67 MB

 cars.cd1.txt

2.72 KB

 cars.cd2.txt

2.71 KB
 

Announce URL: http://mazysmadhouse.net/announce.php?passkey=tssespecialtorrentv1byxamsep2007

Torrent description

TLine


Cars.TR-EN AC3.DvDRip.XviD-TLine
http://www.imdb.com/title/tt0317219/

Ripper : 17mayis
Format : AVI
Format/Info : Audio Video Interleave
File size : 700 MiB
Duration : 54mn 36s
Overall bit rate : 1791 Kbps
Writing application : VirtualDubMod 1.5.4.1 (build 2178/release)
Writing library : VirtualDubMod build 2178/release
IAS1 : English / English
IAS2 : Turkish / Turkish

Video
Format : MPEG-4 Visual
Format profile : Streaming [email protected]
Format settings, BVOP : Yes
Format settings, QPel : No
Format settings, GMC : No warppoints
Format settings, Matrix : Custom
Codec ID : XVID
Codec ID/Hint : XviD
Duration : 54mn 36s
Bit rate : 1014 Kbps
Width : 720 pixels
Height : 304 pixels
Display aspect ratio : 2.35
Frame rate : 25.000 fps
Resolution : 8 bits
Colorimetry : 4:2:0
Scan type : Progressive
Bits/(Pixel*Frame) : 0.185
Stream size : 396 MiB (57%)
Writing library : XviD 1.2.0.dev47 (UTC 2006-11-01)

Audio #1
Format : AC-3
Format/Info : Audio Coding 3
Codec ID : 2000
Duration : 54mn 36s
Bit rate mode : Constant
Bit rate : 384 Kbps
Channel(s) : 6 channels
Channel positions : Front: L C R, Rear: L R, LFE
Sampling rate : 48.0 KHz
Stream size : 150 MiB (21%)
Alignment : Aligned on interleaves
Interleave, duration : 96 ms (2.40 video frames)
Interleave, preload duration : 96 ms

Audio #2
Format : AC-3
Format/Info : Audio Coding 3
Codec ID : 2000
Duration : 54mn 36s
Bit rate mode : Constant
Bit rate : 384 Kbps
Channel(s) : 6 channels
Channel positions : Front: L C R, Rear: L R, LFE
Sampling rate : 48.0 KHz
Stream size : 150 MiB (21%)
Alignment : Aligned on interleaves
Interleave, duration : 96 ms (2.40 video frames)
Interleave, preload duration : 96 ms

related torrents

Torrent name

health leech seeds Size
 


comments (0)

Main Menu