Comedy

In Her Shoes TR EN AC3 DvDRip XviD TLinemazysmadhouse net

  • Download 5x Faster
  • Download torrent
  • Direct Download
  • Rate this torrent +  |  -
In Her Shoes TR EN AC3 DvDRip XviD TLinemazysmadhouse net

Free and Direct Download with Usenet 300GB+ free


Torrent info

Name:In Her Shoes TR EN AC3 DvDRip XviD TLinemazysmadhouse net

Total Size: 1.38 GB

Magnet: Magnet Link

Seeds: 2

Leechers: 3

Stream: Watch Online @ Movie4u

Last Updated: 2011-01-01 05:34:22 (Update Now)

Torrent added: 2008-09-07 10:44:29




Torrent Files List


In Her Shoes.TR-EN AC3.DvDRip.XviD-TLine.cd1 (Size: 1.38 GB) (Files: 103)

 In Her Shoes.TR-EN AC3.DvDRip.XviD-TLine.cd1

  TLine-ihsa.r00

14.31 MB

  TLine-ihsa.r01

14.31 MB

  TLine-ihsa.r02

14.31 MB

  TLine-ihsa.r03

14.31 MB

  TLine-ihsa.r04

14.31 MB

  TLine-ihsa.r05

14.31 MB

  TLine-ihsa.r06

14.31 MB

  TLine-ihsa.r07

14.31 MB

  TLine-ihsa.r08

14.31 MB

  TLine-ihsa.r09

14.31 MB

  TLine-ihsa.r10

14.31 MB

  TLine-ihsa.r11

14.31 MB

  TLine-ihsa.r12

14.31 MB

  TLine-ihsa.r13

14.31 MB

  TLine-ihsa.r14

14.31 MB

  TLine-ihsa.r15

14.31 MB

  TLine-ihsa.r16

14.31 MB

  TLine-ihsa.r17

14.31 MB

  TLine-ihsa.r18

14.31 MB

  TLine-ihsa.r19

14.31 MB

  TLine-ihsa.r20

14.31 MB

  TLine-ihsa.r21

14.31 MB

  TLine-ihsa.r22

14.31 MB

  TLine-ihsa.r23

14.31 MB

  TLine-ihsa.r24

14.31 MB

  TLine-ihsa.r25

14.31 MB

  TLine-ihsa.r26

14.31 MB

  TLine-ihsa.r27

14.31 MB

  TLine-ihsa.r28

14.31 MB

  TLine-ihsa.r29

14.31 MB

  TLine-ihsa.r30

14.31 MB

  TLine-ihsa.r31

14.31 MB

  TLine-ihsa.r32

14.31 MB

  TLine-ihsa.r33

14.31 MB

  TLine-ihsa.r34

14.31 MB

  TLine-ihsa.r35

14.31 MB

  TLine-ihsa.r36

14.31 MB

  TLine-ihsa.r37

14.31 MB

  TLine-ihsa.r38

14.31 MB

  TLine-ihsa.r39

14.31 MB

  TLine-ihsa.r40

14.31 MB

  TLine-ihsa.r41

14.31 MB

  TLine-ihsa.r42

14.31 MB

  TLine-ihsa.r43

14.31 MB

  TLine-ihsa.r44

14.31 MB

  TLine-ihsa.r45

14.31 MB

  TLine-ihsa.r46

14.31 MB

  TLine-ihsa.r47

13.47 MB

  TLine-ihsa.rar

14.31 MB

  TLine-ihsa.sfv

3.78 KB

 In Her Shoes.TR-EN AC3.DvDRip.XviD-TLine.cd2

  TLine-ihsa.r00

14.31 MB

  TLine-ihsa.r01

14.31 MB

  TLine-ihsa.r02

14.31 MB

  TLine-ihsa.r03

14.31 MB

  TLine-ihsa.r04

14.31 MB

  TLine-ihsa.r05

14.31 MB

  TLine-ihsa.r06

14.31 MB

  TLine-ihsa.r07

14.31 MB

  TLine-ihsa.r08

14.31 MB

  TLine-ihsa.r09

14.31 MB

  TLine-ihsa.r10

14.31 MB

  TLine-ihsa.r11

14.31 MB

  TLine-ihsa.r12

14.31 MB

  TLine-ihsa.r13

14.31 MB

  TLine-ihsa.r14

14.31 MB

  TLine-ihsa.r15

14.31 MB

  TLine-ihsa.r16

14.31 MB

  TLine-ihsa.r17

14.31 MB

  TLine-ihsa.r18

14.31 MB

  TLine-ihsa.r19

14.31 MB

  TLine-ihsa.r20

14.31 MB

  TLine-ihsa.r21

14.31 MB

  TLine-ihsa.r22

14.31 MB

  TLine-ihsa.r23

14.31 MB

  TLine-ihsa.r24

14.31 MB

  TLine-ihsa.r25

14.31 MB

  TLine-ihsa.r26

14.31 MB

  TLine-ihsa.r27

14.31 MB

  TLine-ihsa.r28

14.31 MB

  TLine-ihsa.r29

14.31 MB

  TLine-ihsa.r30

14.31 MB

  TLine-ihsa.r31

14.31 MB

  TLine-ihsa.r32

14.31 MB

  TLine-ihsa.r33

14.31 MB

  TLine-ihsa.r34

14.31 MB

  TLine-ihsa.r35

14.31 MB

  TLine-ihsa.r36

14.31 MB

  TLine-ihsa.r37

14.31 MB

  TLine-ihsa.r38

14.31 MB

  TLine-ihsa.r39

14.31 MB

  TLine-ihsa.r40

14.31 MB

  TLine-ihsa.r41

14.31 MB

  TLine-ihsa.r42

14.31 MB

  TLine-ihsa.r43

14.31 MB

  TLine-ihsa.r44

14.31 MB

  TLine-ihsa.r45

14.31 MB

  TLine-ihsa.r46

14.31 MB

  TLine-ihsa.r47

13.46 MB

  TLine-ihsa.rar

14.31 MB

  TLine-ihsa.sfv

3.78 KB

 sample

  sample.avi

14.64 MB

 shoes.cd1.txt

2.71 KB

 shoes.cd2.txt

2.75 KB
 

Announce URL: http://mazysmadhouse.net/announce.php?passkey=tssespecialtorrentv1byxamsep2007

Torrent description

TLine

In Her Shoes.TR-EN AC3.DvDRip.XviD-TLine
http://www.imdb.com/title/tt0388125/

Ripper : 17mayis
Format : AVI
Format/Info : Audio Video Interleave
File size : 700 MiB
Duration : 1h 1mn
Overall bit rate : 1590 Kbps
Writing application : VirtualDubMod 1.5.4.1 (build 2178/release)
Writing library : VirtualDubMod build 2178/release
IAS1 : English / English
IAS2 : Turkish / Turkish

Video
Format : MPEG-4 Visual
Format profile : Streaming [email protected]
Format settings, BVOP : Yes
Format settings, QPel : No
Format settings, GMC : No warppoints
Format settings, Matrix : Custom
Codec ID : XVID
Codec ID/Hint : XviD
Duration : 1h 1mn
Bit rate : 749 Kbps
Width : 720 pixels
Height : 320 pixels
Display aspect ratio : 2.25
Frame rate : 25.000 fps
Resolution : 8 bits
Colorimetry : 4:2:0
Scan type : Progressive
Bits/(Pixel*Frame) : 0.130
Stream size : 330 MiB (47%)
Writing library : XviD 1.2.0.dev47 (UTC 2006-11-01)

Audio #1
Format : AC-3
Format/Info : Audio Coding 3
Codec ID : 2000
Duration : 1h 1mn
Bit rate mode : Constant
Bit rate : 448 Kbps
Channel(s) : 6 channels
Channel positions : Front: L C R, Rear: L R, LFE
Sampling rate : 48.0 KHz
Stream size : 197 MiB (28%)
Alignment : Aligned on interleaves
Interleave, duration : 96 ms (2.40 video frames)
Interleave, preload duration : 96 ms

Audio #2
Format : AC-3
Format/Info : Audio Coding 3
Codec ID : 2000
Duration : 1h 1mn
Bit rate mode : Constant
Bit rate : 384 Kbps
Channel(s) : 6 channels
Channel positions : Front: L C R, Rear: L R, LFE
Sampling rate : 48.0 KHz
Stream size : 169 MiB (24%)
Alignment : Aligned on interleaves
Interleave, duration : 96 ms (2.40 video frames)
Interleave, preload duration : 96 ms

related torrents

Torrent name

health leech seeds Size
 

comments (0)

Main Menu