Bones

Bones S03E01 Ein Kannibale und der Hunger auf mehr DVDRip XviD LD DL

  • Download 5x Faster
  • Download torrent
  • Direct Download
  • Rate this torrent +  |  -
Bones S03E01 Ein Kannibale und der Hunger auf mehr DVDRip XviD LD DL

Free and Direct Download with Usenet 300GB+ free


Torrent info

Name:Bones S03E01 Ein Kannibale und der Hunger auf mehr DVDRip XviD LD DL

Total Size: 397.18 MB

Magnet: Magnet Link

Seeds: 7

Leechers: 0

Stream: Watch Online @ Movie4u

Last Updated: 2017-01-23 21:00:41 (Update Now)

Torrent added: 2008-09-07 07:55:49




Torrent Files List


Bones.S03E01.Ein.Kannibale.und.der.Hunger.auf.mehr.avi (Size: 397.18 MB) (Files: 1)

 Bones.S03E01.Ein.Kannibale.und.der.Hunger.auf.mehr.avi

397.18 MB
 

tracker

leech seeds
 

Torrent description


...::::Edelweis-Group Presents::::...

Torrent Name: Bones S03E01 Ein Kannibale und der Hunger auf mehr

-------------------------

--> Movie/Serie

Sprache: [X] Deutsch [X] Englisch [ ] siehe Beschreibung

Quelle:
Video: [ ] HDTV [X] DVD [ ] TV/dTV [ ] TS [ ] Cam [ ] Sonstiges
Audio: [ ] AC3 [ ] DVD [ ] TV/dTV [X] LD [ ] Micro [ ] Sonstiges

Genre: TV-Serie/Crime


Untertitel: keine

Extras: keine



-------------------------

Beschreibung:
Wann immer irgendwo Knochenfunde der Polizei Raetsel aufgeben, wird sie hinzugezogen: Dr. Temperance Brennan (Spitzname: Bones) ist

forensische Anthropologin und kann wie niemand sonst in Skeletten und Knochenresten lesen. Sie entdeckt noch so winzige Hinweise auf die

Identitaet des Opfers und die Todesursache. Sollte ein Verbrechen vorliegen, findet sie wertvolle Spuren, die der Polizei bei der Suche

nach dem Taeter helfen. Unterstuetzt wird sie dabei von einem Team junger Wissenschaftler, die mit ihr am Jeffersonian Institut in

Washington arbeiten. Doch die Arbeit im Institut ist ihr nicht genug. Daher ueberredet sie den FBI-Agenten Seeley Booth, sie aktiv in die

Ermittlungen ausserhalb des Labors mit einzubeziehen. Booth laesst sich zunaechst nur widerwillig darauf ein, denn Wissenschaftler sind ihm

suspekt.

Ausserdem beurteilen er und Brennan die Faelle oft sehr unterschiedlich: Waehrend Brennan an die Wissenschaft glaubt und sehr rational an

die Faelle herangeht, verlaesst sich Booth lieber auf seinen Instinkt und vertraut auch beim Umgang mit den Verdaechtigen auf sein

Bauchgefuehl. Doch im Grunde macht die beiden genau das zu einem perfekten Team.

Episodenbeschreibung:
Booth und Brennan werden zu einem neuen Tatort gerufen: Jugendliche haben gemeldet, dass ihnen waehrend der Fahrt ploetzlich ein

Totenschaedel durch die Windschutzscheibe ihres Autos geknallt ist. Brennan untersucht den Schaedel nach Hinweisen, die bei der

Identifizierung des Opfers und bei der Ermittlung der Todesursache helfen koennten. Da sie Bisspuren findet, scheint es sich um einen Fall

von Kannibalismus zu handeln. Der Tote wird als Gavin Nichols identifiziert, der ein bekannter Musiker war. Als Booth erfaehrt, dass Gavin

eine Affaere mit einer verheirateten Frau hatte, verdaechtigt er deren Ehemann. Aber dann entdeckt Zack den entscheidenden Hinweis
-------------------------

Technische Details:
General
Complete name : Bones.S03E01.Ein.Kannibale.und.der.Hunger.auf.mehr.avi
Format : AVI
Format/Info : Audio Video Interleave
File size : 397 MiB
Duration : 41mn 17s
Overall bit rate : 1345 Kbps
Writing application : VirtualDubMod 1.5.10.2 (build 2540/release)
Writing library : VirtualDubMod build 2540/release

Video
Format : MPEG-4 Visual
Format profile : Streaming [email protected]
Format settings, BVOP : Yes
Format settings, QPel : No
Format settings, GMC : No warppoints
Format settings, Matrix : Default
Codec ID : XVID
Codec ID/Hint : XviD
Duration : 41mn 17s
Bit rate : 1062 Kbps
Width : 640 pixels
Height : 352 pixels
Display aspect ratio : 16/9
Frame rate : 25.000 fps
Resolution : 8 bits
Colorimetry : 4:2:0
Scan type : Progressive
Bits/(Pixel*Frame) : 0.189
Stream size : 314 MiB (79)
Writing library : XviD 1.2.0SMP (UTC 2006-01-08)

Audio #1
Format : MPEG Audio
Format version : Version 1
Format profile : Layer 3
Codec ID : 55
Codec ID/Hint : MP3
Duration : 41mn 17s
Bit rate mode : Variable
Bit rate : 128 Kbps
Nominal bit rate : 132 Kbps
Channel(s) : 2 channels
Sampling rate : 48.0 KHz
Resolution : 16 bits
Stream size : 37.7 MiB (9)
Alignment : Aligned on interleaves
Interleave, duration : 24 ms (0.60 video frame)
Interleave, preload duration : 351 ms
Writing library : LAME3.90.
Encoding settings : ABR

Audio #2
Format : MPEG Audio
Format version : Version 1
Format profile : Layer 3
Codec ID : 55
Codec ID/Hint : MP3
Duration : 41mn 17s
Bit rate mode : Variable
Bit rate : 134 Kbps
Channel(s) : 2 channels
Sampling rate : 48.0 KHz
Resolution : 16 bits
Stream size : 39.7 MiB (10)
Alignment : Aligned on interleaves
Interleave, duration : 24 ms (0.60 video frame)
Interleave, preload duration : 519 ms
Writing library : LAME3.90.
Encoding settings : ABR






--------------------------------------------

Note:

Happy Leeching und das Seeden nicht vergessen

Wuerdigt die Arbeit eines jeden Uppers mit einen Danke und/oder eines netten Kommentars.

Bin fuer Lob und Kritik stets offen.

--------------------------------------------



NFO File make with ZNFO Maker V6.0
(C)2008 by Edelweis-Group

related torrents

Torrent name

health leech seeds Size
 

comments (0)

Main Menu