Bones

Bones Staffel 2 DVDRip XviD

  • Download 5x Faster
  • Download torrent
  • Direct Download
  • Rate this torrent +  |  -
Bones Staffel 2 DVDRip XviD

Anonymous and Free Direct Download 300GB+


Torrent info

Name:Bones Staffel 2 DVDRip XviD

Total Size: 7.18 GB

Magnet: Magnet Link

Seeds: 3

Leechers: 1

Stream: Watch Online @ Movie4u

Last Updated: 2017-08-22 00:20:45 (Update Now)

Torrent added: 2008-09-07 07:55:48



VPN For Torrents

Torrent Files List


Bones.S02E01.Ein.Toter.auf.den.Gleisen.avi (Size: 7.18 GB) (Files: 21)

 Bones.S02E01.Ein.Toter.auf.den.Gleisen.avi

349.86 MB

 Bones.S02E02.Die.Schwangere.in.der.Bucht.avi

349.78 MB

 Bones.S02E03.Der.Junge.im.Muell.avi

349.96 MB

 Bones.S02E04.Die.Opfer.eines.boesen.Spiels.avi

349.84 MB

 Bones.S02E05.Der.Luegner.in.der.Lauge.avi

349.85 MB

 Bones.S02E06.Die.junge.Frau.im.Kronleuchter.avi

349.95 MB

 Bones.S02E07.Das.Maedchen.und.die.Schoenheit.avi

349.97 MB

 Bones.S02E08.Zwei.Schicksale.im.Sand.avi

349.96 MB

 Bones.S02E09.Ein.Totengraeber.und.die.noch.Lebenden.avi

349.93 MB

 Bones.S02E10.Die.kopflose.Hexe.im.Wald.avi

349.98 MB

 Bones.S02E11.Ein.Verraeter.im.Feuer.avi

349.79 MB

 Bones.S02E12.Der.Mann.aus.dem.Gefaengnis.avi

350.02 MB

 Bones.S02E13.Die.junge.Frau.im.Alligator.avi

349.98 MB

 Bones.S02E14.Das.Recht.und.die.Befangenheit.avi

349.97 MB

 Bones.S02E15.Drei.Morde.wie.sie.im.Buche.stehen.avi

349.99 MB

 Bones.S02E16.Eine.knochenlose.Braut.im.Fluss.avi

349.98 MB

 Bones.S02E17.Ein.junger.Priester.auf.dem.alten.Friedhof.avi

350.00 MB

 Bones.S02E18.Besuche.aus.dem.Untergrund.avi

349.97 MB

 Bones.S02E19.Ein.Astronaut.als.Sternschnuppe.avi

350.01 MB

 Bones.S02E20.Eine.leuchtende.Leiche.im.alten.Steinhaus.avi

349.97 MB

 Bones.S02E21.Die.junge.alte.Frau.in.der.Pfuetze.avi

349.83 MB
 

tracker

leech seeds
 

Torrent description




...::::Edelweis-Group Presents::::...

Torrent Name: Bones - Die Knochenjaegerin Season 2 Collection

-------------------------

--> Movie/Serie

Sprache: [X] Deutsch [ ] Englisch [ ] siehe Beschreibung

Quelle:
Video: [ ] HDTV [X] DVD [ ] TV/dTV [ ] TS [ ] Cam [ ] Sonstiges
Audio: [ ] AC3 [X] DVD [ ] TV/dTV [ ] LD [ ] Micro [ ] Sonstiges

Genre: TV-Serie/Crime


Untertitel: keine

Extras: keine



-------------------------

Beschreibung:
Wann immer irgendwo Knochenfunde der Polizei Raetsel aufgeben, wird sie hinzugezogen: Dr. Temperance Brennan (Spitzname: Bones) ist

forensische Anthropologin und kann wie niemand sonst in Skeletten und Knochenresten lesen. Sie entdeckt noch so winzige Hinweise auf die

Identitaet des Opfers und die Todesursache. Sollte ein Verbrechen vorliegen, findet sie wertvolle Spuren, die der Polizei bei der Suche

nach dem Taeter helfen. Unterstuetzt wird sie dabei von einem Team junger Wissenschaftler, die mit ihr am Jeffersonian Institut in

Washington arbeiten. Doch die Arbeit im Institut ist ihr nicht genug. Daher ueberredet sie den FBI-Agenten Seeley Booth, sie aktiv in die

Ermittlungen ausserhalb des Labors mit einzubeziehen. Booth laesst sich zunaechst nur widerwillig darauf ein, denn Wissenschaftler sind ihm

suspekt.

Ausserdem beurteilen er und Brennan die Faelle oft sehr unterschiedlich: Waehrend Brennan an die Wissenschaft glaubt und sehr rational an

die Faelle herangeht, verlaesst sich Booth lieber auf seinen Instinkt und vertraut auch beim Umgang mit den Verdaechtigen auf sein

Bauchgefuehl. Doch im Grunde macht die beiden genau das zu einem perfekten Team.

-------------------------

Technische Details:
General
Complete name : Bones.S02E01.Ein.Toter.auf.den.Gleisen.avi
Format : AVI
Format/Info : Audio Video Interleave
File size : 350 MiB
Duration : 42mn 9s
Overall bit rate : 1160 Kbps
Writing application : VirtualDubMod 1.5.10.2 (build 2540/release)
Writing library : VirtualDubMod build 2540/release

Video
Format : MPEG-4 Visual
Format profile : Streaming [email protected]
Format settings, BVOP : Yes
Format settings, QPel : No
Format settings, GMC : No warppoints
Format settings, Matrix : Default
Codec ID : XVID
Codec ID/Hint : XviD
Duration : 42mn 9s
Bit rate : 1017 Kbps
Width : 640 pixels
Height : 352 pixels
Display aspect ratio : 16/9
Frame rate : 25.000 fps
Resolution : 8 bits
Colorimetry : 4:2:0
Scan type : Progressive
Bits/(Pixel*Frame) : 0.181
Stream size : 307 MiB (88)
Writing library : XviD 1.1.2 (UTC 2006-11-01)

Audio
Format : MPEG Audio
Format version : Version 1
Format profile : Layer 3
Codec ID : 55
Codec ID/Hint : MP3
Duration : 42mn 9s
Bit rate mode : Variable
Bit rate : 130 Kbps
Minimum bit rate : 135 Kbps
Channel(s) : 2 channels
Sampling rate : 48.0 KHz
Resolution : 16 bits
Stream size : 39.3 MiB (11)
Alignment : Aligned on interleaves
Interleave, duration : 24 ms (0.60 video frame)
Interleave, preload duration : 141 ms
Writing library : LAME3.97b
Encoding settings : ABR


--------------------------------------------

Episoden:

S02E01 Ein Toter auf den Gleisen
S02E02 Die Schwangere in der Bucht
S02E03 Der Junge im Muell
S02E04 Die Opfer eines boesen Spiels
S02E05 Der Luegner in der Lauge
S02E06 Die junge Frau im Kronleuchter
S02E07 Das Maedchen und die Schoenheit
S02E08 Zwei Schicksale im Sand
S02E09 Ein Totengraeber und die noch Lebenden
S02E10 Die kopflose Hexe im Wald
S02E11 Ein Verraeter im Feuer
S02E12 Der Mann aus dem Gefaengnis
S02E13 Die junge Frau im Alligator
S02E14 Das Recht und die Befangenheit
S02E15 Drei Morde wie sie im Buche stehen
S02E16 Eine knochenlose Braut im Fluss
S02E17 Ein junger Priester auf dem alten Friedhof
S02E18 Besuche aus dem Untergrund
S02E19 Ein Astronaut als Sternschnuppe
S02E20 Eine leuchtende Leiche im alten Steinhaus
S02E21 Die junge alte Frau in der Pfuetze


--------------------------------------------

Note:

Happy Leeching und das Seeden nicht vergessen

Wuerdigt die Arbeit eines jeden Uppers mit einen Danke und/oder eines netten Kommentars.

Bin fuer Lob und Kritik stets offen.

--------------------------------------------



NFO File make with ZNFO Maker V6.0
(C)2008 by Edelweis-Group

related torrents

Torrent name

health leech seeds Size

Bones staffel 1

0 0 2.00 GB 0
 


comments (0)

Main Menu