Bones

Bones Staffel 1 DVDRip XviD DL

  • Download 5x Faster
  • Download torrent
  • Direct Download
  • Rate this torrent +  |  -
Bones Staffel 1 DVDRip XviD DL

Anonymous and Free Direct Download 300GB+


Torrent info

Name:Bones Staffel 1 DVDRip XviD DL

Total Size: 8.38 GB

Magnet: Magnet Link

Seeds: 0

Leechers: 0

Stream: Watch Online @ Movie4u

Last Updated: 2017-01-15 16:37:29 (Update Now)

Torrent added: 2008-09-07 07:55:48



VPN For Torrents

Torrent Files List


Bones.S01E01.Die.Frau.im.Teich.avi (Size: 8.38 GB) (Files: 22)

 Bones.S01E01.Die.Frau.im.Teich.avi

390.01 MB

 Bones.S01E02.Der.Mann.im.Jeep.avi

390.00 MB

 Bones.S01E03.Der.Junge.am.Baum.avi

390.00 MB

 Bones.S01E04.Der.Tote.im.Baer.avi

390.00 MB

 Bones.S01E05.Der.Junge.im.Busch.avi

389.99 MB

 Bones.S01E06.Der.Mann.in.der.Wand.avi

390.01 MB

 Bones.S01E07.Der.Mann.in.der.Todeszelle.avi

390.00 MB

 Bones.S01E08.Das.Maedchen.im.Kuehlschrank.avi

390.01 MB

 Bones.S01E09.Der.Mann.im.Bunker.avi

390.00 MB

 Bones.S01E10.Die.Frau.am.Flughafen.avi

390.01 MB

 Bones.S01E11.Die.Frau.im.Auto.avi

390.00 MB

 Bones.S01E12.Das.Skelett.in.der.Gasse.avi

390.00 MB

 Bones.S01E13.Die.Frau.im.Garten.avi

390.01 MB

 Bones.S01E14.Der.Mann.im.Gras.avi

390.00 MB

 Bones.S01E15.Leichen.im.Labor.avi

390.00 MB

 Bones.S01E16.Die.Frau.im.Tunnel.avi

389.34 MB

 Bones.S01E17.Der.Schaedel.in.der.Wueste.avi

390.00 MB

 Bones.S01E18.Der.Mann.mit.dem.Knochen.avi

390.01 MB

 Bones.S01E19.Kein.Mann.in.der.Leichenhalle.avi

390.01 MB

 Bones.S01E20.Der.Krebs.im.Knochen.avi

390.00 MB

 Bones.S01E21.Der.Soldat.auf.dem.Grab.avi

390.00 MB

 Bones.S01E22.Die.Frau.aus.der.Vergangenheit.avi

390.00 MB
 

tracker

leech seeds
 

Torrent description


...::::Edelweis-Group Presents::::...

Torrent Name: Bones - Die Knochenjaegerin Season 1 Collection

-------------------------

--> Movie/Serie

Sprache: [X] Deutsch [X] Englisch [ ] siehe Beschreibung

Quelle:
Video: [ ] HDTV [X] DVD [ ] TV/dTV [ ] TS [ ] Cam [ ] Sonstiges
Audio: [ ] AC3 [X] DVD [ ] TV/dTV [ ] LD [ ] Micro [ ] Sonstiges

Genre: TV-Serie/Crime


Untertitel: keine

Extras: keine



-------------------------

Beschreibung:
Wann immer irgendwo Knochenfunde der Polizei Raetsel aufgeben, wird sie hinzugezogen: Dr. Temperance Brennan (Spitzname: Bones) ist

forensische Anthropologin und kann wie niemand sonst in Skeletten und Knochenresten lesen. Sie entdeckt noch so winzige Hinweise auf die

Identitaet des Opfers und die Todesursache. Sollte ein Verbrechen vorliegen, findet sie wertvolle Spuren, die der Polizei bei der Suche

nach dem Taeter helfen. Unterstuetzt wird sie dabei von einem Team junger Wissenschaftler, die mit ihr am Jeffersonian Institut in

Washington arbeiten. Doch die Arbeit im Institut ist ihr nicht genug. Daher ueberredet sie den FBI-Agenten Seeley Booth, sie aktiv in die

Ermittlungen ausserhalb des Labors mit einzubeziehen. Booth laesst sich zunaechst nur widerwillig darauf ein, denn Wissenschaftler sind ihm

suspekt.

Ausserdem beurteilen er und Brennan die Faelle oft sehr unterschiedlich: Waehrend Brennan an die Wissenschaft glaubt und sehr rational an

die Faelle herangeht, verlaesst sich Booth lieber auf seinen Instinkt und vertraut auch beim Umgang mit den Verdaechtigen auf sein

Bauchgefuehl. Doch im Grunde macht die beiden genau das zu einem perfekten Team.

-------------------------

Technische Details:
General
Format : AVI
Format/Info : Audio Video Interleave
File size : 390 MiB
Duration : 42mn 18s
Overall bit rate : 1289 Kbps
Writing application : VirtualDubMod 1.5.4.1 (build 2178/release)
Writing library : VirtualDubMod build 2178/release

Video
Format : MPEG-4 Visual
Format profile : Streaming [email protected]
Format settings, BVOP : Yes
Format settings, QPel : No
Format settings, GMC : No warppoints
Format settings, Matrix : Custom
Codec ID : XVID
Codec ID/Hint : XviD
Duration : 42mn 18s
Bit rate : 1042 Kbps
Width : 640 pixels
Height : 368 pixels
Display aspect ratio : 16/9
Frame rate : 25.000 fps
Resolution : 8 bits
Colorimetry : 4:2:0
Scan type : Progressive
Bits/(Pixel*Frame) : 0.177
Stream size : 315 MiB (81)
Writing library : XviD 1.2.0.dev47 (UTC 2006-11-01)

Audio #1
Format : MPEG Audio
Format version : Version 1
Format profile : Layer 3
Codec ID : 55
Codec ID/Hint : MP3
Duration : 42mn 18s
Bit rate mode : Constant
Bit rate : 32.0 Kbps
Channel(s) : 2 channels
Sampling rate : 48.0 KHz
Resolution : 16 bits
Stream size : 34.5 MiB (9)
Alignment : Aligned on interleaves
Interleave, duration : 24 ms (0.60 video frame)
Interleave, preload duration : 504 ms
Writing library : LAME3.97

Audio #2
Format : MPEG Audio
Format version : Version 1
Format profile : Layer 3
Codec ID : 55
Codec ID/Hint : MP3
Duration : 42mn 18s
Bit rate mode : Variable
Bit rate : 112 Kbps
Minimum bit rate : 128 Kbps
Channel(s) : 2 channels
Sampling rate : 48.0 KHz
Resolution : 16 bits
Stream size : 33.8 MiB (9)
Alignment : Aligned on interleaves
Interleave, duration : 24 ms (0.60 video frame)
Interleave, preload duration : 164 ms
Writing library : LAME3.97
Encoding settings : ABR

--------------------------------------------

Episoden:

S01E01 Die Frau im Teich
S01E02 Der Mann im Jeep
S01E03 Der Junge am Baum
S01E04 Der Tote im Baer
S01E05 Der Junge im Busch
S01E06 Der Mann in der Wand
S01E07 Der Mann in der Todeszelle
S01E08 Das Maedchen im Kuehlschrank
S01E09 Der Mann im Bunker
S01E10 Die Frau am Flughafen
S01E11 Die Frau im Auto
S01E12 Das Skelett in der Gasse
S01E13 Die Frau im Garten
S01E14 Der Mann im Gras
S01E15 Leichen im Labor
S01E16 Die Frau im Tunnel
S01E17 Der Schaedel in der Wueste
S01E18 Der Mann mit dem Knochen
S01E19 Kein Mann in der Leichenhalle
S01E20 Der Krebs im Knochen
S01E21 Der Soldat auf dem Grab
S01E22 Die Frau aus der Vergangenheit


--------------------------------------------

Note:

Happy Leeching und das Seeden nicht vergessen

Wuerdigt die Arbeit eines jeden Uppers mit einen Danke und/oder eines netten Kommentars.

Bin fuer Lob und Kritik stets offen.

--------------------------------------------



NFO File make with ZNFO Maker V6.0
(C)2008 by Edelweis-Group

related torrents

Torrent name

health leech seeds Size

Bones staffel 1

0 0 2.00 GB 0
 


comments (0)

Main Menu