Comedy

A Mighty Wind 2003 {TwinPack} DVDRIP AVI XVID AC3 5 1 (Terpripken)

  • Download 5x Faster
  • Download torrent
  • Direct Download
  • Rate this torrent +  |  -


Torrent info

Name:A Mighty Wind 2003 {TwinPack} DVDRIP AVI XVID AC3 5 1 (Terpripken)

Total Size: 2.28 GB

Magnet: Magnet Link

Seeds: 3

Leechers: 2

Stream: Watch Online @ Movie4u

Last Updated: 2010-09-22 05:54:57 (Update Now)

Torrent added: 2008-09-06 13:56:04



VPN For Torrents

Torrent Files List


A Mighty Wind---The Album (Size: 2.28 GB) (Files: 21)

 A Mighty Wind---The Album

  01 - Old Joe's Place.flac

13.08 MB

  02 - Just That Kinda Day.flac

15.91 MB

  03 - When You're Next To Me.flac

19.33 MB

  04 - Never Did No Wanderin'.flac

20.00 MB

  05 - Fare Away.flac

17.20 MB

  06 - One More Time.flac

22.63 MB

  07 - Loco Man.flac

12.16 MB

  08 - The Good Book Song.flac

14.96 MB

  09 - Skeletons Of Quinto.flac

20.03 MB

  10 - Never Did No Wanderin'.flac

18.28 MB

  11 - Ballad Of Bobby And June.flac

27.38 MB

  12 - Blood On The Coal.flac

20.32 MB

  13 - Main Street Rag.flac

6.31 MB

  14 - Start Me Up.flac

14.93 MB

  15 - Potato's In The Paddy Wagon.flac

14.67 MB

  16 - Kiss At The End Of The Rainbow.flac

15.05 MB

  17 - Mighty Wind.flac

15.61 MB

  When You're Next To Me.mov

37.95 MB

 A Mighty Wind.avi

1.96 GB

 A Mighty Wind.avi.txt

2.13 KB

 Torrent downloaded from Demonoid.com.txt

0.05 KB
 

Announce URL: http://inferno.demonoid.com:3394/announce

Torrent description

This TwinPack contains both the feature film "A Mighty Wind" and the soundtrack "A Mighty Wind---The Album".


When folk icon Irving Steinbloom passed away, he left behind a legacy of music and a family of performers he has shepherded to folk stardom. To celebrate a life spent submerged in folk, Irving's loving son Jonathan has decided to put together a memorial concert featuring some of Steinbloom's best-loved musicians. There's Mitch and Mickey, who were the epitome of young love until their partnership was torn apart by heartbreak; classic troubadours The Folksmen, whose records were endlessly entertaining for anyone able to punch a hole in the center to play them; and The New Main Street Singers, the most meticulously color-coordinated neuftet ever to hit an amusement park. Now for one night only in New York City's Town Hall, these three groups will reunite and gather together to celebrate the music that almost made them famous. Written by Sujit R. Varma

Release Date: 9 May 2003 (USA)
Genre: Comedy | Music
MPAA: Rated PG-13 for sex-related humor.
Runtime: 91 min
Country: USA
Language: English

Director: Christopher Guest
Writers (WGA): Christopher Guest (written by)
Eugene Levy (written by)

Cast

Jim Moret ... Newscaster
Stuart Luce ... Irving Steinbloom
Mary Gross ... Ma Klapper
Marty Belafsky ... Ramblin' Sandy Pitnik
Michael Baser ... Pa Klapper
Jared Nelson Smith ... Young Chuck Wiseman
Ryan Raddatz ... Bill Weyburn
Todd Lieberman ... Fred Knox
Matthew Joy ... Boy Klapper
Laura Harris ... Girl Klapper
Brian Riley ... Young George Menschell
Harry Shearer ... Mark Shubb
Michael McKean ... Jerry Palter
Christopher Guest ... Alan Barrows
Eugene Levy ... Mitch Cohen

General

Complete name : A Mighty Wind---2003 {TwinPack} DVDRIP AVI XVID AC3 5 1 (Terpripken)
Format : AVI
Format/Info : Audio Video Interleave
File size : 1.96 GiB
Duration : 1h 31mn
Overall bit rate : 3054 Kbps
Writing application : VirtualDubMod 1.5.4.1 (build 2178/release)
Writing library : VirtualDubMod build 2178/release
IAS1 : English

Video

Format : MPEG-4 Visual
Format profile : Streaming [email protected]
Format settings, BVOP : Yes
Format settings, QPel : No
Format settings, GMC : No warppoints
Format settings, Matrix : Custom
Codec ID : XVID
Codec ID/Hint : XviD
Duration : 1h 31mn
Bit rate : 2599 Kbps
Width : 720 pixels
Height : 416 pixels
Display aspect ratio : 16/9
Frame rate : 23.976 fps
Resolution : 8 bits
Colorimetry : 4:2:0
Scan type : Progressive
Bits/(Pixel*Frame) : 0.362
Stream size : 1.67 GiB (85%)
Writing library : XviD 1.2.0.dev47 (UTC 2006-11-01)

Audio

Format : AC-3
Format/Info : Audio Coding 3
Codec ID : 2000
Duration : 1h 31mn
Bit rate mode : Constant
Bit rate : 448 Kbps
Channel(s) : 6 channels
Channel positions : Front: L C R, Rear: L R, LFE
Sampling rate : 48.0 KHz
Video delay : 16ms
Stream size : 294 MiB (15%)
Alignment : Split accross interleaves
Interleave, duration : 96 ms (2.30 video frames)
Interleave, preload duration : 96 ms







related torrents

Torrent name

health leech seeds Size

A Mighty Wind

0 0 716.73 MB 0

A Mighty Wind

0 0 880.59 MB 0

A Mighty Wind

0 0 42.00 MB 0
 


comments (0)

Main Menu