Movies

Into the Dark S01E03 720p WEB x265-MiNX[TGx]

  • Download Faster
  • Download torrent
  • Direct Download
  • Rate this torrent +  |  -
Into the Dark S01E03 720p WEB x265-MiNX[TGx]

Download Anonymously! Get Protected Today And Get your 70% discount


Torrent info

Name:Into the Dark S01E03 720p WEB x265-MiNX[TGx]

Infohash: 28D8E302B42DEC640C5FB916EEE6CCED4616DFB7

Total Size: 382.84 MB

Seeds: 4

Leechers: 2

Stream: Watch Full Movie @ Movie4u

Last Updated: 2018-12-21 20:02:22 (Update Now)

Torrent added: 2018-12-07 23:20:33






Torrent Files List


Into.the.Dark.S01E03.720p.WEB.x265-MiNX.mkv (Size: 382.84 MB) (Files: 2)

 Into.the.Dark.S01E03.720p.WEB.x265-MiNX.mkv

382.84 MB

 [TGx]Downloaded from torrentgalaxy.org .txt

0.67 KB
 

tracker

leech seeds
 

Torrent description

Video
ID : 1
Format : AVC
Format/Info : Advanced Video Codec
Format profile : [emailprotected]
Format settings, CABAC : Yes
Format settings, ReFrames : 4 frames
Codec ID : avc1
Codec ID/Info : Advanced Video Coding
Duration : 44mn 8s
Bit rate : 1 700 Kbps
Width : 1 280 pixels
Height : 534 pixels
Display aspect ratio : 2.40:1
Original display aspect ratio : 2.40:1
Frame rate mode : Constant
Frame rate : 25.000 fps
Color space : YUV
Chroma subsampling : 4:2:0
Bit depth : 8 bits
Scan type : Progressive
Bits/(Pixel*Frame) : 0.099
Stream size : 537 MiB (91%)
Writing library : x264 core 155 r2901 7d0ff22
Encoded date : UTC 2018-12-07 21:14:19
Tagged date : UTC 2018-12-07 21:14:19
Color range : Limited
Color primaries : BT.709
Transfer characteristics : BT.709
Matrix coefficients : BT.709

Audio
ID : 2
Format : AAC
Format/Info : Advanced Audio Codec
Format profile : LC
Codec ID : 40
Duration : 44mn 8s
Bit rate mode : Variable
Bit rate : 165 Kbps
Channel(s) : 2 channels
Channel positions : Front: L R
Sampling rate : 48.0 KHz
Compression mode : Lossy
Stream size : 52.0 MiB (9%)
Title : Stereo / Stereo
Language : Swedish
Encoded date : UTC 2018-12-07 21:14:19
Tagged date : UTC 2018-12-07 21:14:19

related torrents

Torrent name

health leech seeds Size
 


comments (0)

Main Menu