Jazz

colombo jazz bob berg, dennis chambers e mitch watkins curves (1990) (eac flac)

  • Download 5x Faster
  • Download torrent
  • Direct Download
  • Rate this torrent +  |  -

Torrent info

Name:colombo jazz bob berg, dennis chambers e mitch watkins curves (1990) (eac flac)

Total Size: 257.33 MB

Magnet: Magnet Link

Seeds: 4

Leechers: 9

Stream: Watch Online @ Movie4u

Last Updated: 2010-12-28 11:56:40 (Update Now)

Torrent added: 2008-07-05 03:38:21



VPN For Torrents

Torrent Files List


berg & chambers.jpg (Size: 257.33 MB) (Files: 7)

 berg & chambers.jpg

125.17 KB

 cover a.jpg

129.93 KB

 cover b.jpg

151.52 KB

 info.txt

0.67 KB

 Mitch Watkins - Curves.cue

1.24 KB

 Mitch Watkins - Curves.flac

256.93 MB

 Mitch Watkins - Curves.log

2.47 KB
 

Announce URL: http://colombo-bt.org:2710/announce

Torrent description

colombo jazz   bob berg, dennis chambers e mitch watkins   curves (1990)   (eac flac) preview 8

colombo jazz   bob berg, dennis chambers e mitch watkins   curves (1990)   (eac flac) preview 9

[size=40pt][color=black]bob berg - dennis chambers & mitch watkins[/color][/size]

[size=35pt][color=navy]CURVES[/color][/size]

colombo jazz   bob berg, dennis chambers e mitch watkins   curves (1990)   (eac flac) preview 0

colombo jazz   bob berg, dennis chambers e mitch watkins   curves (1990)   (eac flac) preview 1

colombo jazz   bob berg, dennis chambers e mitch watkins   curves (1990)   (eac flac) preview 2

colombo jazz   bob berg, dennis chambers e mitch watkins   curves (1990)   (eac flac) preview 3

colombo jazz   bob berg, dennis chambers e mitch watkins   curves (1990)   (eac flac) preview 4

[size=10pt][color=black]BOB BERG[/color][/size]
[size=10pt][color=red]SAX[/color][/size]

[color=teal]***[/color]

[size=10pt][color=black]DENNIS CHAMBERS[/color][/size]
[size=10pt][color=red]DRUMS[/color][/size]

[color=teal]***[/color]

[size=10pt][color=black]MITCH WATKINS[/color][/size]
[size=10pt][color=red]GUITAR[/color][/size]

[color=teal]***[/color]

[size=10pt][color=black]JAY ANDERSON[/color][/size]
[size=10pt][color=red]BASS[/color][/size]

colombo jazz   bob berg, dennis chambers e mitch watkins   curves (1990)   (eac flac) preview 5

[size=10pt][color=black]Mitch Watkins è nato a McAllen, Texas. Ha imparato pianoforte a otto anni e chitarra a dodici anni. Dopo la normale chitarra culto (Jeff Beck, Jimmy Page, Eric Clapton, Jimi Hendrix e), Mitch si innamorò della musica classica (Bach, Stravinsky). Ha frequentato Texas Christian University su un corale svolgimento di borse di studio, ma ha finito per smettere di scuola ad aderire a un rock and roll band. Egli ha infine è tornato a scuola presso l'Università del Texas di Austin e ha studiato composizione per quattro anni. In questo momento, si è immerso nella musica jazz. Mitch attualmente vive a Austin. Quando non è giocare con il suo gruppo, è giocare con le persone come ad esempio Lovett, Paul Glasse, e John Fremgen. (google traslate)
Il compianto Bob berg e Dennis Chambers (da me definito "il mostro") non hanno certo bisogno di presentazioni.[/color][/size]

[code]Exact Audio Copy V0.99 prebeta 3 from 28. July 2007

EAC extraction logfile from 4. July 2008, 20:17

Mitch Watkins / Curves

Used drive : TSSTcorpCDDVDW SH-S202J Adapter: 5 ID: 0

Read mode : Secure
Utilize accurate stream : Yes
Defeat audio cache : Yes
Make use of C2 pointers : No

Read offset correction : 6
Overread into Lead-In and Lead-Out : No
Fill up missing offset samples with silence : Yes
Delete leading and trailing silent blocks : No
Null samples used in CRC calculations : Yes
Used interface : Installed external ASPI interface

Used output format : User Defined Encoder
Selected bitrate : 1024 kBit/s
Quality : High
Add ID3 tag : No
Command line compressor : C:\Programmi\Exact Audio Copy\FLAC\FLAC.EXE
Additional command line options : -6 -V -T "ARTIST=%a" -T "TITLE=%t" -T "ALBUM=%g" -T "DATE=%y" -T "TRACKNUMBER=%n" -T "GENRE=%m" -T "COMMENT=%e" %s -o %d


TOC of the extracted CD

Track | Start | Length | Start sector | End sector
---------------------------------------------------------
1 | 0:00.33 | 3:42.70 | 33 | 16752
2 | 3:43.28 | 5:47.72 | 16753 | 42849
3 | 9:31.25 | 2:16.73 | 42850 | 53122
4 | 11:48.23 | 5:17.72 | 53123 | 76969
5 | 17:06.20 | 6:16.73 | 76970 | 105242
6 | 23:23.18 | 4:21.02 | 105243 | 124819
7 | 27:44.20 | 6:28.00 | 124820 | 153919
8 | 34:12.20 | 2:51.00 | 153920 | 166744
9 | 37:03.20 | 8:27.38 | 166745 | 204807


Range status and errors

Selected range

Filename C:\Documents and Settings\HP_Proprietario\Desktop\chambers - berg - watkins\Mitch Watkins - Curves.wav

Peak level 100.0 %
Range quality 100.0 %
Test CRC C0EDF769
Copy CRC C0EDF769
Copy OK

No errors occurred


AccurateRip summary

Track 1 not present in database
Track 2 not present in database
Track 3 not present in database
Track 4 not present in database
Track 5 not present in database
Track 6 not present in database
Track 7 not present in database
Track 8 not present in database
Track 9 not present in database

None of the tracks are present in the AccurateRip database

End of status report
[/code]

colombo jazz   bob berg, dennis chambers e mitch watkins   curves (1990)   (eac flac) preview 6

[size=10pt][color=black]Artista: Mitch Watkins
Titolo: Curves
Data: 1990
Etichetta: enja
Genere: Jazz instrument
fonte: cd original
formato: flac
Produced: mitch watkins
torrent: mb 257
covers: yes
log: yes
file info: yes[/color][/size]

colombo jazz   bob berg, dennis chambers e mitch watkins   curves (1990)   (eac flac) preview 7

[size=10pt][color=black]H 24 *** 40/45 kbp/s[/color][/size]

colombo jazz   bob berg, dennis chambers e mitch watkins   curves (1990)   (eac flac) preview 10


related torrents

Torrent name

health leech seeds Size
 


comments (0)

Main Menu