Movies - Other

The Kung Fu Cult Master 1993 1080p BluRay x264 DTS-WiKi

  • Download Faster
  • Download torrent
  • Direct Download
  • Rate this torrent +  |  -
The Kung Fu Cult Master 1993 1080p BluRay x264 DTS-WiKi

Download Anonymously! Get Protected Today And Get your 70% discount


Torrent info

Name:The Kung Fu Cult Master 1993 1080p BluRay x264 DTS-WiKi

Infohash: C7430B8C6337BD7B5EB3A19CE7DA2A031DACEB95

Total Size: 15.51 GB

Seeds: 1

Leechers: 1

Stream: Watch Full Movie @ Movie4u

Last Updated: 2019-10-24 03:22:07 (Update Now)

Torrent added: 2017-08-11 07:11:04




Torrent Files List


3_chi.srt (Size: 15.51 GB) (Files: 4)

 3_chi.srt

93.34 KB

 4_chi.srt

93.34 KB

 RARBG.txt

0.03 KB

 The.Kung.Fu.Cult.Master.1993.1080p.BluRay.x264.DTS-WiKi.mkv

15.51 GB
 

tracker

leech seeds
 

Torrent description

Screenshots:

http://imgcouch.com/image/hXdF

http://imgcouch.com/image/hdta

http://imgcouch.com/image/hrMe

IMDB: http://www.imdb.com/title/tt0108624/

Video
ID : 1
Format : AVC
Format/Info : Advanced Video Codec
Format profile : [emailprotected]/* */
Format settings, CABAC : Yes
Format settings, ReFrames : 4 frames
Codec ID : V_MPEG4/ISO/AVC
Duration : 1 h 40 min
Bit rate : 19.0 Mb/s
Width : 1 920 pixels
Height : 1 080 pixels
Display aspect ratio : 16:9
Frame rate mode : Constant
Frame rate : 24.000 FPS
Color space : YUV
Chroma subsampling : 4:2:0
Bit depth : 8 bits
Scan type : Progressive
Bits/(Pixel*Frame) : 0.382


Audio #1
ID : 2
Format : DTS
Format/Info : Digital Theater Systems
Mode : 16
Format settings, Endianness : Big
Codec ID : A_DTS
Duration : 1 h 40 min
Bit rate mode : Constant
Bit rate : 1 509 kb/s
Channel(s) : 2 channels
Channel positions : Front: L R
Sampling rate : 48.0 kHz
Frame rate : 93.750 FPS (512 spf)
Bit depth : 24 bits
Compression mode : Lossy
Stream size : 1.06 GiB (7%)
Title : Mandarin
Language : Chinese
Default : Yes

Audio #2
ID : 3
Format : DTS
Format/Info : Digital Theater Systems
Mode : 16
Format settings, Endianness : Big
Codec ID : A_DTS
Duration : 1 h 40 min
Bit rate mode : Constant
Bit rate : 1 509 kb/s
Channel(s) : 6 channels
Channel positions : Front: L C R, Side: L R, LFE
Sampling rate : 48.0 kHz
Frame rate : 93.750 FPS (512 spf)
Bit depth : 16 bits
Compression mode : Lossy
Stream size : 1.06 GiB (7%)
Title : Cantonese
Language : Chinese
Default : No

related torrents

Torrent name

health leech seeds Size
 


comments (0)

Main Menu