Movies - Other

Laali Ki Shaadi Mein Laaddoo Deewana 2017 Hindi Movies HD TS Clean Audio AAC New +Sample ☻rDX☻

  • Download 5x Faster
  • Download torrent
  • Direct Download
  • Rate this torrent +  |  -

Torrent info

Name:Laali Ki Shaadi Mein Laaddoo Deewana 2017 Hindi Movies HD TS Clean Audio AAC New +Sample ☻rDX☻

Total Size: 704.60 MB

Magnet: Magnet Link

Seeds: 5

Leechers: 4

Stream: Watch Full Movie @ Movie4u

Last Updated: 2017-07-09 09:56:46 (Update Now)

Torrent added: 2017-06-17 03:20:07



VPN For Torrents

Torrent Files List


 

tracker

leech seeds
 

Torrent description

----------------------------------------------------------------
Laali Ki Shaadi Mein Laaddoo Deewana 2017 Hindi Movies HD TS Clean Audio AAC New +Sample ☻rDX☻

SCREEN SHOTS & POSTER:

http://postimage.co.nr/2017/6/discount/index.html
http://postimage.co.nr/2017/6/discount/1.html
http://postimage.co.nr/2017/6/discount/2.html
http://postimage.co.nr/2017/6/discount/3.html
http://postimage.co.nr/2017/6/discount/4.html
http://postimage.co.nr/2017/6/discount/5.html
http://postimage.co.nr/2017/6/discount/6.html
http://postimage.co.nr/2017/6/discount/7.html
http://postimage.co.nr/2017/6/discount/8.html
http://postimage.co.nr/2017/6/discount/9.html
http://postimage.co.nr/2017/6/discount/10.html

File size : 698 MiB
Duration : 2 h 6 min
Overall bit rate mode : Constant
Overall bit rate : 773 kb/s
Movie name : Laali Ki Shaadi Mein Laaddoo Deewana 2017 Hindi Movies HD TS Clean Audio AAC New ☻rDX☻

Video
ID : 2
Format : AVC
Format/Info : Advanced Video Codec
Format profile : [emailprotected]/* */
Format settings, CABAC : Yes
Format settings, ReFrames : 2 frames
Format settings, GOP : M=1, N=12
Codec ID : V_MPEG4/ISO/AVC
Duration : 2 h 6 min
Bit rate mode : Constant
Bit rate : 390 kb/s
Width : 720 pixels
Height : 304 pixels
Display aspect ratio : 2.35:1
Frame rate mode : Constant
Frame rate : 25.000 FPS
Color space : YUV
Chroma subsampling : 4:2:0
Bit depth : 8 bits
Scan type : Progressive
Bits/(Pixel*Frame) : 0.071
Stream size : 337 MiB (48%)
Title : ☻rDX☻
Default : Yes
Forced : No

Audio
ID : 1
Format : AC-3
Format/Info : Audio Coding 3
Mode extension : CM (complete main)
Format settings, Endianness : Big
Codec ID : A_AC3
Duration : 2 h 6 min
Bit rate mode : Constant
Bit rate : 384 kb/s
Channel(s) : 6 channels
Channel positions : Front: L C R, Side: L R, LFE
Sampling rate : 48.0 kHz
Frame rate : 31.250 FPS (1536 spf)
Bit depth : 16 bits
Compression mode : Lossy
Stream size : 347 MiB (50%)
Title : ☻rDX☻
Default : Yes
Forced : No

related torrents

Torrent name

health leech seeds Size
 


comments (0)

Main Menu

 

script data-cfasync="false" src="//d2ghscazvn398x.cloudfront.net/?cshgd=690275">