TV - Other

Scooby-Doo! Mystery Incorporated Complete Season 2 (2012–13)

  • Download Faster
  • Download torrent
  • Direct Download
  • Rate this torrent +  |  -
Scooby-Doo! Mystery Incorporated Complete Season 2 (2012–13)

Download Anonymously! Get Protected Today And Get your 70% discount


Torrent info

Name:Scooby-Doo! Mystery Incorporated Complete Season 2 (2012–13)

Infohash: D8D1F3BE5705657842DE2A8B68BBF2CB0250D6DC

Total Size: 21.15 GB

Seeds: 0

Leechers: 0

Stream: Watch Full Movie @ Movie4u

Last Updated: 2017-06-04 09:00:21 (Update Now)

Torrent added: 2017-06-04 10:00:18




Torrent Files List


Episode 25 Through the Curtain.mp4 (Size: 21.15 GB) (Files: 26)

 Episode 25 Through the Curtain.mp4

854.05 MB

 Episode 26 Come Undone.mp4

853.07 MB

 Episode 24 Gates of Gloom.mp4

853.75 MB

 Episode 23 Dark Night of the Hunters.mp4

820.31 MB

 Episode 22 Nightmare in Red.mp4

849.11 MB

 Episode 3 The Night the Clown Cried II Tears of Doom.mp4

825.39 MB

 Episode 4 Web of the Dreamweaver.mp4

842.39 MB

 Episode 8 The Night on Haunted Mountain.mp4

847.79 MB

 Episode 9 Grim Judgement.mp4

832.60 MB

 Episode 7 The Gathering Gloom.mp4

827.00 MB

 Episode 6 Art of Darkness.mp4

785.15 MB

 Episode 5 The Hodag of Horror.mp4

836.94 MB

 Episode 21 The Man in the Mirror.mp4

844.77 MB

 Episode 20 Stand and Deliver.mp4

844.05 MB

 Episode 13 Wrath of the Krampus.mp4

819.41 MB

 Episode 14 The Heart of Evil.mp4

833.27 MB

 Episode 12 Where Stalks the Scarebear.mp4

786.45 MB

 Episode 11 The Midnight Zone.mp4

835.88 MB

 Episode 10 Night Terrors.mp4

823.21 MB

 Episode 15 Theater of the Doomed.mp4

850.22 MB

 Episode 16 Aliens Among Us.mp4

832.77 MB

 Episode 2 House of the Nightmare Witch.mp4

863.32 MB

 Episode 19 The Devouring.mp4

849.32 MB

 Episode 18 Dance of the Undead.mp4

804.08 MB

 Episode 17 The Horrible Herd.mp4

789.14 MB

 Episode 1 The Night the Clown Cried.mp4

857.56 MB
 

tracker

leech seeds
 

Torrent description

Description

Scooby-Doo and the gang attempt to solve creepy mysteries in the town of Crystal Cove, a place with a history of eerie supernatural events.


Video
ID : 2
Format : AVC
Format/Info : Advanced Video Codec
Format profile : [emailprotected]/* */
Format settings, CABAC : Yes
Format settings, ReFrames : 4 frames
Codec ID : avc1
Codec ID/Info : Advanced Video Coding
Duration : 22 min 46 s
Duration_LastFrame : -1 ms
Bit rate : 5 134 kb/s
Width : 1 920 pixels
Height : 1 080 pixels
Display aspect ratio : 16:9
Frame rate mode : Constant
Frame rate : 23.976 (23976/1000) FPS
Color space : YUV
Chroma subsampling : 4:2:0
Bit depth : 8 bits
Scan type : Progressive
Bits/(Pixel*Frame) : 0.103
Stream size : 836 MiB (98%)
Language : English
Encoded date : UTC 2016-09-05 08:50:02
Tagged date : UTC 2016-09-05 08:50:47
Color range : Limited
Color primaries : BT.709
Transfer characteristics : BT.709
Matrix coefficients : BT.709

Audio
ID : 1
Format : AAC
Format/Info : Advanced Audio Codec
Format profile : LC
Codec ID : 40
Duration : 22 min 46 s
Duration_LastFrame : -19 ms
Bit rate mode : Variable
Bit rate : 125 kb/s
Maximum bit rate : 211 kb/s
Channel(s) : 2 channels
Channel positions : Front: L R
Sampling rate : 48.0 kHz
Frame rate : 46.875 FPS (1024 spf)
Compression mode : Lossy
Stream size : 20.4 MiB (2%)
Language : English
Default : Yes
Alternate group : 1
Encoded date : UTC 2016-09-05 08:48:46
Tagged date : UTC 2016-09-05 08:50:02

related torrents

Torrent name

health leech seeds Size
 


comments (0)

Main Menu