Action

A Wednesday (2008)Pre DVD Rip E Subs BY

  • Download 5x Faster
  • Download torrent
  • Direct Download
  • Rate this torrent +  |  -
A Wednesday (2008)Pre DVD Rip E Subs BY

Anonymous and Direct Download 300GB+ free


Torrent info

Name:A Wednesday (2008)Pre DVD Rip E Subs BY

Total Size: 1.36 GB

Magnet: Magnet Link

Seeds: 0

Leechers: 0

Stream: Watch Online @ Movie4u

Last Updated: 2010-10-18 04:57:28 (Update Now)

Torrent added: 2008-09-05 15:35:51




Torrent Files List


A Wednesday (2008) ~ 2 CD ~ Pre DVD-Rip ~ Team DUS.avi (Size: 1.36 GB) (Files: 1)

 A Wednesday (2008) ~ 2 CD ~ Pre DVD-Rip ~ Team DUS.avi

1.36 GB
 

Announce URL: http://www.bwtorrents.com:6969/Perseus.asmx/announce?passkey=4c12ab3a2ea7078c56e667123d5dd601

Torrent description

A Wednesday (2008)Pre DVD-Rip E-Subs BY- www.Yolike.com

Click Here For ScreenShots

General
Complete name : A Wednesday (2008) ~ 2 CD ~ Pre DVD-Rip ~ Team DUS.avi
Format : AVI
Format/Info : Audio Video Interleave
Format profile : OpenDML
File size : 1.36 GiB
Duration : 1h 35mn
Overall bit rate : 2027 Kbps
Subtitles - None
Ripper - [Team DUS]
Movie language - Hindi
Source - Pre DVD-R
http://www.imdb.com/title/tt1280558/

Video
Format : MPEG-4 Visual
Format profile : Streaming Video@L1
Format settings, BVOP : Yes
Format settings, QPel : No
Format settings, GMC : No warppoints
Format settings, Matrix : Default
Codec ID : XVID
Codec ID/Hint : XviD
Duration : 1h 35mn
Bit rate : 1829 Kbps
Width : 640 pixels
Height : 288 pixels
Display aspect ratio : 2.222
Frame rate : 29.970 fps
Resolution : 8 bits
Colorimetry : 4:2:0
Scan type : Progressive
Bits/(Pixel*Frame) : 0.331
Stream size : 1.22 GiB (90%)
Writing library : XviD 1.2.0.dev47 (UTC 2006-11-01)

Audio
Format : AC-3
Format/Info : Audio Coding 3
Codec ID : 2000
Bit rate mode : Constant
Bit rate : 192 Kbps
Channel(s) : 2 channels
Channel positions : L R
Sampling rate : 48.0 KHz
Stream size : 132 MiB (9%)
Alignment : Aligned on interleaves
Interleave, duration : 64 ms (1.92 video frames)
Interleave, preload duration : 288 ms

related torrents

Torrent name

health leech seeds Size
 


comments (0)

Main Menu