Drama

Dear Enemy (I dashur armik) 2004

  • Download 5x Faster
  • Download torrent
  • Direct Download
  • Rate this torrent +  |  -
Dear Enemy (I dashur armik) 2004

Anonymous and free Direct Download 300GB+


Torrent info

Name:Dear Enemy (I dashur armik) 2004

Total Size: 520.95 MB

Magnet: Magnet Link

Seeds: 0

Leechers: 0

Stream: Watch Online @ Movie4u

Last Updated: 2010-08-22 00:34:53 (Update Now)

Torrent added: 2008-09-05 13:48:59



VPN For Torrents

Torrent Files List


Dear Enemy.avi (Size: 520.95 MB) (Files: 3)

 Dear Enemy.avi

520.93 MB

 Dear Enemy.txt

24.50 KB

 Info.txt

2.36 KB
 

Announce URL: http://tracker.mininova.org:80/announce

Torrent description

Dear Enemy - I dashur armik (2004)
Director:Gjergj Xhuvani
Writers:Dhimitër Xhuvani (writer) Gjergj Xhuvani (writer)

http://www.imdb.com/title/tt0395489/

PLOT summary
Albania 1943: After the Italian surrender, the Germans occupy
the country, so the peoples\' situation becomes more and more
chaotic. Harun Bonata, a clever trader with a big heart, hides
three fugitives in his cellar: the partisan Quazim, the Jewish
watchmaker Hoakin and the Italian soldier Giulio. Nevertheless,
he makes a good deal with the German officer Franz.

Alternate titles:
Bêlement de l\'agneau, Le (France) (working title)
Mein Freund der Feind (Germany)


Not my rip. Thanks to the original uploader.

Spoken languages: albanian, german, italian.
English subtitles in txt format.



General
Format : AVI
Format/Info : Audio Video Interleave
File size : 521 MiB
Duration : 1h 26mn
Overall bit rate : 841 Kbps

Video
Format : MPEG-4 Visual
Format profile : [email protected]
Codec ID : DIVX
Codec ID/Info : Project Mayo
Codec ID/Hint : DivX 4
Bit rate : 700 Kbps
Width : 640 pixels
Height : 480 pixels
Display aspect ratio : 4/3
Frame rate : 25.000 fps
Resolution : 8 bits
Colorimetry : 4:2:0
Scan type : Progressive
Bits/(Pixel*Frame) : 0.091
Stream size : 434 MiB (83%)
Writing library : avc2.0.11.1110

Audio
Format : MPEG Audio
Format version : Version 1
Format profile : Layer 3
Codec ID : 55
Codec ID/Hint : MP3
Bit rate mode : Constant
Bit rate : 128 Kbps
Channel(s) : 2 channels
Sampling rate : 48.0 KHz
Resolution : 16 bits
Stream size : 79.3 MiB (15%)
Alignment : Aligned on interleaves
Interleave, duration : 24 ms (0.60 video frame)



related torrents

Torrent name

health leech seeds Size

My Dear Enemy [ZIONTEAM]

2 2 346.84 MB 0
 


comments (0)

Main Menu