TV - Other

Fairy Tail S2 - 01 (176) [Hi10 720p] [ENG-SUBBED] [GWC] mp4

  • Download 5x Faster
  • Download torrent
  • Direct Download
  • Rate this torrent +  |  -

Torrent info

Name:Fairy Tail S2 - 01 (176) [Hi10 720p] [ENG-SUBBED] [GWC] mp4

Total Size: 127.18 MB

Magnet: Magnet Link

Seeds: 0

Leechers: 0

Stream: Watch Full Movie @ Movie4u

Last Updated: 2017-04-12 03:09:40 (Update Now)

Torrent added: 2014-04-05 14:34:42



VPN For Torrents

Torrent Files List


Fairy Tail S2 - 01 (176) [Hi10 720p] [ENG-SUBBED] [GWC].mp4 (Size: 127.18 MB) (Files: 1)

 Fairy Tail S2 - 01 (176) [Hi10 720p] [ENG-SUBBED] [GWC].mp4

127.18 MB
 

tracker

leech seeds
 

Torrent description

Fairy Tail S2 - 01 (176) [Hi10 720p] [ENG-SUBBED] [GWC]


STORYLINE :
A young celestial mage, (Lucy Heartfilia), runs away from home and travels to the land of Fiore to join the magical (Fairy Tail Guild). Along the way, she meets (Natsu Dragneel), a teenage boy looking for his foster parent, a dragon named (Igneel), with his best friend, (Happy) the cat. Shortly after their meeting, Lucy is abducted by (Bora) of Prominence, who was posing as Salamander of Fairy Tail, to be sold as a slave. Natsu rescues her and reveals that he is the real Salamander of Fairy Tail and has the skills of a Dragon Slayer, an ancient fire magic. He offers her membership into the guild, which she gladly accepts, they along with (Erza Scarlet) Armoured maiden, (Gray Fullbuster) Ice Maker, and Happy become a team performing various missions offered to the Fairy Tail guild.


THUMBNAIL IMAGE :
Fairy Tail S2 - 01 (176) [Hi10 720p] [ENG-SUBBED] [GWC] mp4 preview 0


MEDIA INFO :
General
Format : MPEG-4
Format profile : Base Media
File size : 127 MiB
Duration : 21mn 30s
Overall bit rate mode : Variable
Overall bit rate : 827 Kbps

Video
Format : AVC
Format profile : High [email protected]
Format settings, CABAC : Yes
Format settings, ReFrames : 10 frames
Duration : 21mn 30s
Bit rate : 751 Kbps
Maximum bit rate : 7 001 Kbps
Width : 1 280 pixels
Height : 720 pixels
Display aspect ratio : 16:9
Frame rate mode : Variable
Frame rate : 23.976 fps
Stream size : 115 MiB (91%)
Title : Fairy Tail S2 - 01 (176) [Hi10 720p] [ENG-SUBBED] [GWC]
Writing library : x264 core

Audio
Format : AAC
Format profile : HE-AAC / LC
Duration : 21mn 30s
Bit rate mode : Variable
Channel(s) : 2 channels
Sampling rate : 48.0 KHz / 24.0 KHz
Stream size : 11.1 MiB (9%)
Language : Japanese

Text
Format : Timed Text
Title : [GWC]
Language : English

related torrents

Torrent name

health leech seeds Size
 


comments (0)

Main Menu