TV - Other

Once Upon A Time S03 Wicked Is Coming 720p WEB-DL DD5 1 h264-jAh mkv

  • Download Faster
  • Download torrent
  • Direct Download
  • Rate this torrent +  |  -
Once Upon A Time S03 Wicked Is Coming 720p WEB-DL DD5 1 h264-jAh mkv

Download Anonymously! Get Protected Today And Get your 70% discount


Torrent info

Name:Once Upon A Time S03 Wicked Is Coming 720p WEB-DL DD5 1 h264-jAh mkv

Infohash: 2901C5962ED567164CC21E098159037FA4B1293A

Total Size: 1.33 GB

Seeds: 0

Leechers: 2

Stream: Watch Full Movie @ Movie4u

Last Updated: 2018-07-17 04:19:47 (Update Now)

Torrent added: 2014-03-18 08:34:15






Torrent Files List


 

tracker

leech seeds
 

Torrent description

General
Unique ID : 222190085104118217892792838371131122915 (0xA72840FAA971DB7ABBE0AF5AEFA1E4E3)
Complete name : Once.Upon.A.Time.S03.Wicked.Is.Coming.720p.WEB-DL.DD5.1.h264-jAh.mkv
Format : Matroska
Format version : Version 2
File size : 1.33 GiB
Duration : 42mn 4s
Overall bit rate : 4 534 Kbps
Encoded date : UTC 2014-03-17 15:38:13
Writing application : mkvmerge v6.1.0 (Old Devil) built on Mar 2 2013 14:32:37
Writing library : libebml v1.3.0 + libmatroska v1.4.0

Video
ID : 1
Format : AVC
Format/Info : Advanced Video Codec
Format profile : [email protected]
Format settings, CABAC : No
Format settings, ReFrames : 2 frames
Format settings, GOP : N=1
Codec ID : V_MPEG4/ISO/AVC
Duration : 42mn 4s
Bit rate : 4 059 Kbps
Width : 1 280 pixels
Height : 720 pixels
Display aspect ratio : 16:9
Frame rate : 23.976 fps
Color space : YUV
Chroma subsampling : 4:2:0
Bit depth : 8 bits
Scan type : Progressive
Bits/(Pixel*Frame) : 0.184
Stream size : 1.19 GiB (90%)
Language : English
Default : Yes
Forced : No
Color primaries : BT.709-5, BT.1361, IEC 61966-2-4, SMPTE RP177
Transfer characteristics : BT.709-5, BT.1361
Matrix coefficients : BT.709-5, BT.1361, IEC 61966-2-4 709, SMPTE RP177

Audio
ID : 2
Format : AC-3
Format/Info : Audio Coding 3
Mode extension : CM (complete main)
Format settings, Endianness : Big
Codec ID : A_AC3
Duration : 42mn 4s
Bit rate mode : Constant
Bit rate : 384 Kbps
Channel(s) : 6 channels
Channel positions : Front: L C R, Side: L R, LFE
Sampling rate : 48.0 KHz
Bit depth : 16 bits
Compression mode : Lossy
Stream size : 116 MiB (8%)
Language : English
Default : Yes
Forced : No

Text
ID : 3
Format : UTF-8
Codec ID : S_TEXT/UTF8
Codec ID/Info : UTF-8 Plain Text
Language : English
Default : Yes
Forced : No

related torrents

Torrent name

health leech seeds Size
 


comments (0)

Main Menu