Movies - Other

Adult World 2013 WEBRip 5_1 AC3 HQ x264-SSDD

  • Download Faster
  • Download torrent
  • Direct Download
  • Rate this torrent +  |  -
Adult World 2013 WEBRip 5_1 AC3 HQ x264-SSDD

Download Anonymously! Get Protected Today And Get your 70% discount


Torrent info

Name:Adult World 2013 WEBRip 5_1 AC3 HQ x264-SSDD

Infohash: F8AC56731B9E41BA606BDDABE2413AE7DAED4030

Total Size: 1.19 GB

Seeds: 13

Leechers: 3

Stream: Watch Full Movie @ Movie4u

Last Updated: 2014-02-17 22:49:04 (Update Now)

Torrent added: 2014-02-15 20:34:42






Torrent Files List


 

tracker

leech seeds
 

Torrent description

Adult World 2013 WEBRip 5_1 AC3 HQ x264-SSDD preview 0


IMDB - http://www.imdb.com/title/tt1067765/

SOURCE - PHD

General
Complete name : Adult World 2013 WEBRip 5_1 AC3 HQ x264-SSDD.mp4
Format : MPEG-4
Format profile : Base Media
Codec ID : isom
File size : 1.19 GiB
Duration : 1h 33mn
Overall bit rate mode : Variable
Overall bit rate : 1 825 Kbps

Video
ID : 1
Format : AVC
Format/Info : Advanced Video Codec
Format profile : [email protected]
Format settings, CABAC : Yes
Format settings, ReFrames : 3 frames
Codec ID : avc1
Codec ID/Info : Advanced Video Coding
Duration : 1h 33mn
Bit rate mode : Variable
Bit rate : 1 438 Kbps
Maximum bit rate : 40.0 Mbps
Width : 720 pixels
Height : 400 pixels
Display aspect ratio : 16:9
Frame rate mode : Constant
Frame rate : 23.976 fps
Color space : YUV
Chroma subsampling : 4:2:0
Bit depth : 8 bits
Scan type : Progressive
Bits/(Pixel*Frame) : 0.208
Stream size : 961 MiB (79%)
Writing library : x264 core 138 r2358 9e941d1

Audio
ID : 2
Format : AC-3
Format/Info : Audio Coding 3
Mode extension : CM (complete main)
Format settings, Endianness : Big
Codec ID : ac-3
Duration : 1h 33mn
Bit rate mode : Constant
Bit rate : 384 Kbps
Channel(s) : 6 channels
Channel positions : Front: L C R, Side: L R, LFE
Sampling rate : 48.0 KHz
Bit depth : 16 bits
Compression mode : Lossy
Stream size : 257 MiB (21%)

Adult World 2013 WEBRip 5_1 AC3 HQ x264-SSDD preview 1
Adult World 2013 WEBRip 5_1 AC3 HQ x264-SSDD preview 2
Adult World 2013 WEBRip 5_1 AC3 HQ x264-SSDD preview 3

related torrents

Torrent name

health leech seeds Size
 


comments (0)

Main Menu