Music Videos

One Direction - Story Of My Life [Music Video] 1080p [Sbyky] mp4

  • Download Faster
  • Download torrent
  • Direct Download
  • Rate this torrent +  |  -
One Direction - Story Of My Life [Music Video] 1080p [Sbyky] mp4

Download Anonymously! Get Protected Today And Get your 70% discount


Torrent info

Name:One Direction - Story Of My Life [Music Video] 1080p [Sbyky] mp4

Infohash: 79829E79F9BAD263B13950FB5FB4865903355F11

Total Size: 71.65 MB

Seeds: 6

Leechers: 0

Stream: Watch Full Movie @ Movie4u

Last Updated: 2015-09-18 13:03:41 (Update Now)

Torrent added: 2013-12-24 13:35:36




Torrent Files List


One Direction - Story Of My Life [Music Video] 1080p [Sbyky].mp4 (Size: 71.65 MB) (Files: 1)

 One Direction - Story Of My Life [Music Video] 1080p [Sbyky].mp4

71.65 MB
 

tracker

leech seeds
 

Torrent description



General
Complete name : One Direction - Story Of My Life [Music Video] 1080p [Sbyky].mp4
Format : MPEG-4
Format profile : Base Media
Codec ID : isom
File size : 71.7 MiB
Duration : 4mn 7s
Overall bit rate mode : Variable
Overall bit rate : 2 427 Kbps
Encoded date : UTC 2013-12-03 06:00:42
Tagged date : UTC 2013-12-03 06:00:42

Video
ID : 1
Format : AVC
Format/Info : Advanced Video Codec
Format profile : [email protected]
Format settings, CABAC : Yes
Format settings, ReFrames : 3 frames
Codec ID : avc1
Codec ID/Info : Advanced Video Coding
Duration : 4mn 7s
Bit rate : 2 299 Kbps
Width : 1 920 pixels
Height : 1 080 pixels
Display aspect ratio : 16:9
Frame rate mode : Constant
Frame rate : 25.000 fps
Color space : YUV
Chroma subsampling : 4:2:0
Bit depth : 8 bits
Scan type : Progressive
Bits/(Pixel*Frame) : 0.044
Stream size : 67.9 MiB (95%)
Encoded date : UTC 2013-12-03 06:00:42
Tagged date : UTC 2013-12-03 06:00:42

Audio
ID : 2
Format : AAC
Format/Info : Advanced Audio Codec
Format profile : LC
Codec ID : 40
Duration : 4mn 7s
Bit rate mode : Variable
Bit rate : 126 Kbps
Channel(s) : 2 channels
Channel positions : Front: L R
Sampling rate : 44.1 KHz
Compression mode : Lossy
Delay relative to video : 40ms
Stream size : 3.71 MiB (5%)
Encoded date : UTC 2013-12-03 05:58:29
Tagged date : UTC 2013-12-03 05:58:29

Shared By Sbyky

related torrents

Torrent name

health leech seeds Size
 


comments (0)

Main Menu