Movies - Other

Immortal (2004)

  • Download Faster
  • Download torrent
  • Direct Download
  • Rate this torrent +  |  -
Immortal (2004)

Download Anonymously! Get Protected Today And Get your 70% discount


Torrent info

Name:Immortal (2004)

Infohash: DDF27A44E53126FF3190F91397B2ECF26FA3DE44

Total Size: 828.48 MB

Seeds: 0

Leechers: 0

Stream: Watch Full Movie @ Movie4u

Last Updated: 2012-11-10 13:35:24 (Update Now)

Torrent added: 2012-11-10 14:35:24




Torrent Files List


Immortal (Sample).avi (Size: 828.48 MB) (Files: 2)

 Immortal (Sample).avi

39.57 MB

 Immortal.avi

788.91 MB
 

Announce URL:

Torrent description

Format : AVI
Format/Info : Audio Video Interleave
File size : 789 MiB
Duration : 1h 43mn
Overall bit rate : 1 069 Kbps
Writing application : Lavf51.12.1

Video
ID : 0
Format : MPEG-4 Visual
Format profile : [email protected]
Format settings, BVOP : No
Format settings, QPel : No
Format settings, GMC : No warppoints
Format settings, Matrix : Default (H.263)
Codec ID : DX50
Codec ID/Hint : DivX 5
Duration : 1h 43mn
Bit rate : 929 Kbps
Width : 852 pixels
Height : 480 pixels
Display aspect ratio : 16:9
Frame rate : 23.976 fps
Color space : YUV
Chroma subsampling : 4:2:0
Bit depth : 8 bits
Scan type : Progressive
Compression mode : Lossy
Bits/(Pixel*Frame) : 0.095
Stream size : 686 MiB (87%)
Writing library : Lavc51.40.4

Audio
ID : 1
Format : MPEG Audio
Format version : Version 1
Format profile : Layer 3
Mode : Joint stereo
Mode extension : MS Stereo
Codec ID : 55
Codec ID/Hint : MP3
Duration : 1h 43mn
Bit rate mode : Constant
Bit rate : 128 Kbps
Channel(s) : 2 channels
Sampling rate : 44.1 KHz
Compression mode : Lossy
Stream size : 94.4 MiB (12%)
Alignment : Aligned on interleaves
Interleave, duration : 26 ms (0.63 video frame)
Writing library : LAME3.97

related torrents

Torrent name

health leech seeds Size
 


comments (0)

Main Menu