Movies

There Was A Father - 1942 - Chichi Ariki - Yasujiro Ozu - DVDRip

  • Download Faster
  • Download torrent
  • Direct Download
  • Rate this torrent +  |  -
There Was A Father - 1942 - Chichi Ariki - Yasujiro Ozu - DVDRip

Download Anonymously! And Get Protected Today with 6 Months FREE VPN!


Torrent info

Name:There Was A Father - 1942 - Chichi Ariki - Yasujiro Ozu - DVDRip

Infohash: 8DABA0E8D03761ADCC464FF5B12C8C24D05A4902

Total Size: 384.63 MB

Seeds: 1

Leechers: 4

Stream: Watch Full Movie @ Movie4u

Last Updated: 2012-05-17 23:21:28 (Update Now)

Torrent added: 2012-05-18 00:21:27





Torrent Files List


There Was A Father.mkv (Size: 384.63 MB) (Files: 3)

 There Was A Father.mkv

384.50 MB

 There Was A Father.srm

73.66 KB

 There Was A Father.srt

51.21 KB
 

Announce URL: http://tracker.ccc.de:80

Torrent description

Quality is exactly the same as the DVD. (Why is the filesize so small? Ask the ffmpeg developers). Input #0, matroska,webm, from There Was A Father.mkv: Metadata: ENCODER : Lavf53.30.100 Duration: 01:26:57.44, start: 0.000000, bitrate: 618 k b/s Stream #0:0: Video: h264 (High), yuv420p, 720x480 [S AR 8:9 DAR 4:3], 29.97 fps, 29.97 tbr, 1k tbn, 59.94 tbc (default) Stream #0:1: Audio: vorbis, 48000 Hz, mono, s16 (def ault)-------------------------------------Torrent downloaded from http://thepiratebay.se

related torrents

Torrent name

health leech seeds Size
 


comments (0)

Main Menu

Cheap VPN