Movies - Other

Transformers Dark of the Moon 2011 BRRIP 720P H264-ZEKTORM

  • Download 5x Faster
  • Download torrent
  • Direct Download
  • Rate this torrent +  |  -

Torrent info

Name:Transformers Dark of the Moon 2011 BRRIP 720P H264-ZEKTORM

Total Size: 4.34 GB

Magnet: Magnet Link

Seeds: 2

Leechers: 0

Stream: Watch Full Movie @ Movie4u

Last Updated: 2015-05-23 15:57:36 (Update Now)

Torrent added: 2011-09-29 20:35:36



CyberGhost VPN For Torrents

Torrent Files List


 

tracker

leech seeds
 

Torrent description

Title : Transformers: Dark of the Moon
Year : 2011
Genre : Action | Adventure | Sci-Fi
iMDB URL : http://www.imdb.com/title/tt1399103/

Complete name : Transformers.Dark.of.the.Moon.2011.BRRIP.720P.H264-ZEKTORM.mp4
Format : MPEG-4
Format profile : Base Media
Codec ID : isom
File size : 4.34 GiB
Duration : 2h 34mn
Overall bit rate : 4020 Kbps
Subtitles : English (Format: srt)

Video
ID : 1
Format : AVC
Format/Info : Advanced Video Codec
Format profile : [email protected]
Format settings, CABAC : Yes
Format settings, ReFrames : 12 frames
Codec ID : avc1
Codec ID/Info : Advanced Video Coding
Duration : 2h 34mn
Bit rate mode : Variable
Bit rate : 3570 Kbps
Width : 1280 pixels
Height : 528 pixels
Display aspect ratio : 2.424
Frame rate mode : Constant
Frame rate : 23.976 fps
Resolution : 24 bits
Colorimetry : 4:2:0
Scan type : Progressive
Bits/(Pixel*Frame) : 0.220
Stream size : 3.85 GiB (89%)
Title : Video
Writing library : x264

Audio
ID : 2
Format : AAC
Format/Info : Advanced Audio Codec
Format version : Version 4
Format profile : LC
Format settings, SBR : No
Codec ID : 40
Duration : 2h 34mn
Bit rate mode : Variable
Bit rate : 446 Kbps
Maximum bit rate : 540 Kbps
Channel(s) : 6 channels
Channel positions : Front: L C R, Rear: L R, LFE
Sampling rate : 48.0 KHz
Resolution : 16 bits
Stream size : 492 MiB (11%)
Language : English


Screenshots:

Transformers Dark of the Moon 2011 BRRIP 720P H264-ZEKTORM preview 0

Transformers Dark of the Moon 2011 BRRIP 720P H264-ZEKTORM preview 1

Transformers Dark of the Moon 2011 BRRIP 720P H264-ZEKTORM preview 2

Transformers Dark of the Moon 2011 BRRIP 720P H264-ZEKTORM preview 3

Transformers Dark of the Moon 2011 BRRIP 720P H264-ZEKTORM preview 4

related torrents

Torrent name

health leech seeds Size
 


comments (0)

Main Menu