Movies - Other

Valkyrie 2008 720p BRRip x264 ogg mkv-anoXmous

  • Download 5x Faster
  • Download torrent
  • Direct Download
  • Rate this torrent +  |  -
Valkyrie 2008 720p BRRip x264 ogg mkv-anoXmous

Download FREE And Anonymously


Torrent info

Name:Valkyrie 2008 720p BRRip x264 ogg mkv-anoXmous

Total Size: 697.16 MB

Magnet: Magnet Link

Seeds: 0

Leechers: 0

Stream: Watch Full Movie @ Movie4u

Last Updated: 2016-01-10 19:54:01 (Update Now)

Torrent added: 2011-09-29 15:35:08



CyberGhost VPN For Torrents

Torrent Files List


Valkyrie.2008.720p.BRRip.x264.ogg.mkv-anoXmous.mkv (Size: 697.16 MB) (Files: 2)

 Valkyrie.2008.720p.BRRip.x264.ogg.mkv-anoXmous.mkv

697.16 MB

 Info.txt

2.66 KB
 


tracker

leech seeds
 

Torrent description

Valkyrie.2008.720p.BRRip.x264.ogg.mkv-anoXmous

Format : Matroska
Format version : Version 2
File size : 697 MiB
Duration : 2h 0mn
Overall bit rate mode : Variable
Overall bit rate : 810 Kbps
Encoded date : UTC 2011-09-26 03:36:14
Writing application : mkvmerge v4.9.1 (Ich will) built on Jul 11 2011 23:53:15
Writing library : libebml v1.2.1 + libmatroska v1.1.1

Video
ID : 1
Format : AVC
Format/Info : Advanced Video Codec
Format profile : [email protected]
Format settings, CABAC : Yes
Format settings, ReFrames : 4 frames
Codec ID : V_MPEG4/ISO/AVC
Duration : 2h 0mn
Bit rate : 751 Kbps
Width : 1 280 pixels
Height : 720 pixels
Display aspect ratio : 16:9
Frame rate : 23.976 fps
Color space : YUV
Chroma subsampling : 4:2:0
Bit depth : 8 bits
Scan type : Progressive
Bits/(Pixel*Frame) : 0.034
Stream size : 628 MiB (90%)
Writing library : x264 core 116 r2074 2641b9e
Encoding settings : cabac=1 / ref=3 / deblock=1:0:0 / analyse=0x3:0x113 / me=hex
/ subme=7 / psy=1 / psy_rd=1.00:0.00

Audio
ID : 2
Format : Vorbis
Format settings, Floor : 1
Codec ID : A_VORBIS
Duration : 2h 0mn
Bit rate mode : Variable
Bit rate : 64.0 Kbps
Channel(s) : 2 channels
Sampling rate : 48.0 KHz
Compression mode : Lossy
Stream size : 55.1 MiB (8%)
Writing library : aoTuV 20110424 (UTC 2011-04-24)
Language : English

Text #1
ID : 3
Format : UTF-8
Codec ID : S_TEXT/UTF8
Codec ID/Info : UTF-8 Plain Text
Language : English

Text #2
ID : 4
Format : UTF-8
Codec ID : S_TEXT/UTF8
Codec ID/Info : UTF-8 Plain Text
Language : Swedish

http://www.imdb.com/title/tt0985699/

related torrents

Torrent name

health leech seeds Size
 


comments (0)

Main Menu