Movies - Other

2012 Doomsday [2008] DvdRip XviD-Knã

  • Download 5x Faster
  • Download torrent
  • Direct Download
  • Rate this torrent +  |  -
2012 Doomsday [2008] DvdRip XviD-Knã

Download FREE And Anonymously


Torrent info

Name:2012 Doomsday [2008] DvdRip XviD-Knã

Total Size: 1.26 GB

Magnet: Magnet Link

Seeds: 0

Leechers: 0

Stream: Watch Full Movie @ Movie4u

Last Updated: 2015-04-15 15:12:04 (Update Now)

Torrent added: 2011-09-29 14:35:24



CyberGhost VPN For Torrents

Torrent Files List


2012.Doomsday.[2008].DvdRip.XviD-Knã.avi (Size: 1.26 GB) (Files: 1)

 2012.Doomsday.[2008].DvdRip.XviD-Knã.avi

1.26 GB
 

tracker

leech seeds
 

Torrent description

On December 21, 2012 four strangers on a journey of faith are drawn to an ancient temple in the heart of Mexico. For the Mayans it is the last recorded day. For NASA scientists it is a cataclysmic polar shift. For the rest of us, it is Doomsday.



General
Complete name : 2012.Doomsday.[2008].DvdRip.XviD-Knã\\2012.Doomsday.[2008].DvdRip.XviD-Knã.avi
Format : AVI
Format/Info : Audio Video Interleave
File size : 1.26 GiB
Duration : 1h 25mn
Overall bit rate : 2 110 Kbps
Writing application : VirtualDubMod 1.5.4.1 (build 2178/release)
Writing library : VirtualDubMod build 2178/release

Video
ID : 0
Format : MPEG-4 Visual
Format profile : Advanced [email protected]
Format settings, BVOP : No
Format settings, QPel : No
Format settings, GMC : No warppoints
Format settings, Matrix : Custom
Codec ID : XVID
Codec ID/Hint : XviD
Duration : 1h 25mn
Bit rate : 1 911 Kbps
Width : 720 pixels
Height : 304 pixels
Display aspect ratio : 2.35:1
Frame rate : 25.000 fps
Color space : YUV
Chroma subsampling : 4:2:0
Bit depth : 8 bits
Scan type : Progressive
Compression mode : Lossy
Bits/(Pixel*Frame) : 0.349
Stream size : 1.14 GiB (91%)
Writing library : XviD 1.2.1 (UTC 2008-12-04)

Audio
ID : 1
Format : AC-3
Format/Info : Audio Coding 3
Mode extension : CM (complete main)
Codec ID : 2000
Duration : 1h 25mn
Bit rate mode : Constant
Bit rate : 192 Kbps
Channel(s) : 2 channels
Channel positions : Front: L R
Sampling rate : 48.0 KHz
Bit depth : 16 bits
Compression mode : Lossy
Stream size : 117 MiB (9%)
Alignment : Split accross interleaves
Interleave, duration : 96 ms (2.40 video frames)
Interleave, preload duration : 96 ms
Language : English

related torrents

Torrent name

health leech seeds Size
 


comments (0)

Main Menu