Movies - Other

Anonymous (2011) TS (xvid) SWED Subs DmC

  • Download 5x Faster
  • Download torrent
  • Direct Download
  • Rate this torrent +  |  -
Anonymous (2011) TS (xvid) SWED Subs DmC

Download FREE And Anonymously


Torrent info

Name:Anonymous (2011) TS (xvid) SWED Subs DmC

Total Size: 639.59 MB

Magnet: Magnet Link

Seeds: 1

Leechers: 0

Stream: Watch Full Movie @ Movie4u

Last Updated: 2011-09-29 13:35:12 (Update Now)

Torrent added: 2011-09-29 14:35:12



CyberGhost VPN For Torrents

Torrent Files List


Anonymous (2011) TS (xvid) SWED. Subs. DmC .avi (Size: 639.59 MB) (Files: 1)

 Anonymous (2011) TS (xvid) SWED. Subs. DmC .avi

639.59 MB
 

Announce URL: http://tracker.publicbt.com:80

Torrent description

http://www.scenetime.com - SceneTime [ We been having it ] !!!


How come you press harder on a remote control when you know the battery is dead? so you better seed to get speed ;)

Seed back for speed


...................................NFO:.................................................General

Format : AVI
Format/Info : Audio Video Interleave
Duration : 1h 51mn
Overall bit rate : 866 Kbps

Video
ID : 0
Format : MPEG-4 Visual
Format profile : Advanced [email protected]
Format settings, BVOP : 2
Format settings, QPel : No
Format settings, GMC : No warppoints
Format settings, Matrix : Default (H.263)
Codec ID : XVID
Codec ID/Hint : XviD
Duration : 1h 51mn
Bit rate : 730 Kbps
Width : 720 pixels
Height : 304 pixels
Display aspect ratio : 2.35:1
Frame rate : 29.970 fps
Color space : YUV
Chroma subsampling : 4:2:0
Bit depth : 8 bits
Scan type : Progressive
Compression mode : Lossy
Bits/(Pixel*Frame) : 0.111
Stream size : 585 MiB (84%)


Audio
ID : 1
Format : MPEG Audio
Format version : Version 1
Format profile : Layer 3
Mode : Joint stereo
Mode extension : MS Stereo
Codec ID : 55
Codec ID/Hint : MP3
Duration : 1h 51mn
Bit rate mode : Constant
Bit rate : 128 Kbps
Channel(s) : 2 channels
Sampling rate : 48.0 KHz
Compression mode : Lossy
Stream size : 102 MiB (15%)
Alignment : Aligned on interleaves
Interleave, duration : 133 ms (4.00 video frames)
Interleave, preload duration : 216 ms

related torrents

Torrent name

health leech seeds Size
 


comments (0)

Main Menu