Movies - Other

The Inbetweeners Movie (2011) TS DVDR -

  • Download 5x Faster
  • Download torrent
  • Direct Download
  • Rate this torrent +  |  -
The Inbetweeners Movie (2011) TS DVDR -

Download FREE And Anonymously


Torrent info

Name:The Inbetweeners Movie (2011) TS DVDR -

Total Size: 1.66 GB

Magnet: Magnet Link

Seeds: 0

Leechers: 0

Stream: Watch Full Movie @ Movie4u

Last Updated: 2011-09-29 08:35:58 (Update Now)

Torrent added: 2011-09-29 09:35:58



CyberGhost VPN For Torrents

Torrent Files List


DVD FILES (Size: 1.66 GB) (Files: 28)

 DVD FILES

  DVD FILES.part10.rar

95.78 MB

  DVD FILES.part02.rar

95.78 MB

  DVD FILES.part03.rar

95.78 MB

  DVD FILES.part04.rar

95.78 MB

  DVD FILES.part05.rar

95.78 MB

  DVD FILES.part06.rar

95.78 MB

  DVD FILES.part07.rar

95.78 MB

  DVD FILES.part08.rar

95.78 MB

  DVD FILES.part09.rar

95.78 MB

  DVD FILES.part01.rar

95.78 MB

  DVD FILES.part11.rar

95.78 MB

  DVD FILES.part12.rar

95.78 MB

  DVD FILES.part13.rar

95.78 MB

  DVD FILES.part14.rar

95.78 MB

  DVD FILES.part15.rar

95.78 MB

  DVD FILES.part16.rar

95.78 MB

  DVD FILES.part17.rar

95.78 MB

  DVD FILES.part18.rar

66.39 MB

  DVD.csv

52.34 KB

 Screens

  the-inbetweeners-uk-movie-poster.jpg

284.29 KB

  the-inbetweeners-uk-movie-poster - Copy.jpg

284.29 KB

  pQp5H4or.jpeg

52.72 KB

  LlzeG8De.jpeg

52.34 KB

  s5w6k4n - Copy.jpeg

44.39 KB

  s5w6k4n.jpeg

44.39 KB

  rWOcFwAr - Copy.jpeg

41.46 KB

  rWOcFwAr.jpeg

41.46 KB

 The Inbetweeners Movie .TS.DVDR.nfo

1.93 KB
 

Announce URL:

Torrent description

INFO :

Video

ID : 224 (0xE0)
Format : MPEG Video
Format version : Version 2
Format profile : [email protected]
Format settings, BVOP : Yes
Format settings, Matrix : Default
Format settings, GOP : M=3, N=12
Bit rate mode : Variable
Bit rate : 2 331 Kbps
Nominal bit rate : 9 008 Kbps
Width : 720 pixels
Height : 480 pixels
Display aspect ratio : 16:9
Frame rate : 23.976 fps
Standard : NTSC
Color space : YUV
Chroma subsampling : 4:2:0
Bit depth : 8 bits
Scan type : Progressive
Scan order : 2:3 Pulldown
Compression mode : Lossy
Bits/(Pixel*Frame) : 0.281
Stream size : 906 MiB (91%)


Audio

ID : 189 (0xBD)-128 (0x80)
Format : AC-3
Format/Info : Audio Coding 3
Mode extension : CM (complete main)
Muxing mode : DVD-Video
Bit rate mode : Constant
Bit rate : 192 Kbps
Channel(s) : 2 channels
Channel positions : Front: L R
Sampling rate : 48.0 KHz
Bit depth : 16 bits
Compression mode : Lossy
Stream size : 74.6 MiB (7%)

Plot :

Four socially troubled 18-year-olds from the south of England go on holiday to Malia.


Screens

http://lookpic.com/c1/i2/2504/s5w6k4n.jpeg
http://lookpic.com/c1/i2/174/LlzeG8De.jpeg
http://lookpic.com/c1/i2/1123/rWOcFwAr.jpeg
http://lookpic.com/c1/i2/1670/pQp5H4or.jpeg

related torrents

Torrent name

health leech seeds Size
 


comments (0)

Main Menu