Movies - Other

Johnny English Reborn (2011) DVDRip XviD AC3-SKmbr

  • Download 5x Faster
  • Download torrent
  • Direct Download
  • Rate this torrent +  |  -

Torrent info

Name:Johnny English Reborn (2011) DVDRip XviD AC3-SKmbr

Total Size: 706.28 MB

Magnet: Magnet Link

Seeds: 7

Leechers: 0

Stream: Watch Full Movie @ Movie4u

Last Updated: 0000-00-00 00:00:00 (Update Now)

Torrent added: 2011-09-29 09:35:24



CyberGhost VPN For Torrents

Torrent Files List


Johnny English Reborn (2011).wmv (Size: 706.28 MB) (Files: 1)

 Johnny English Reborn (2011).wmv

706.28 MB
 

Announce URL: http://pow7.com/announce

Torrent description

Johnny English Reborn (2011) DVDRip.XviD.AC3-SKmbr


Format/Info : Audio Video Interleave
File size : 502 MiB
Duration : 1h 43mn
Overall bit rate : 1 887 Kbps
Writing application : Nandub v1.0rc2
Writing library : Nandub build 1852/release

Video
ID : 0
Format : MPEG-4 Visual
Format profile : Advanced [email protected]
Format settings, BVOP : Yes
Format settings, QPel : No
Format settings, GMC : No warppoints
Format settings, Matrix : Default (H.263)
Muxing mode : Packed bitstream
Codec ID : XVID
Codec ID/Hint : XviD
Duration : 1h 43mn
Bit rate : 1 429 Kbps
Width : 624 pixels
Height : 336 pixels
Display aspect ratio : 1.857
Frame rate : 25.000 fps
Color space : YUV
Chroma subsampling : 4:2:0
Bit depth : 8 bits
Scan type : Progressive
Bits/(Pixel*Frame) : 0.273
Stream size : 1.03 GiB (76%)
Writing library : XviD 62

Audio
ID : 1
Format : AC-3
Format/Info : Audio Coding 3
Mode extension : CM (complete main)
Codec ID : 2000
Duration : 1h 43mn
Bit rate mode : Constant
Bit rate : 448 Kbps
Channel(s) : 6 channels
Channel positions : Front: L C R, Side: L R, LFE
Sampling rate : 48.0 KHz
Bit depth : 16 bits
Video delay : 1s 0ms
Stream size : 332 MiB (24%)
Alignment : Split accross interleaves

related torrents

Torrent name

health leech seeds Size
 


comments (0)

Main Menu