Movies - Other

The Bachelor Party 2011 SCREENER Xvid Ac3 UnKnOwN

  • Download 5x Faster
  • Download torrent
  • Direct Download
  • Rate this torrent +  |  -

Torrent info

Name:The Bachelor Party 2011 SCREENER Xvid Ac3 UnKnOwN

Total Size: 924.17 MB

Magnet: Magnet Link

Seeds: 0

Leechers: 0

Stream: Watch Full Movie @ Movie4u

Last Updated: 2011-09-28 20:35:06 (Update Now)

Torrent added: 2011-09-28 20:35:06



CyberGhost VPN For Torrents

Torrent Files List


 

Announce URL: http://tracker.thepiratebay.org/announce

Torrent description

Encoded By .......:UnKnOwN
Runtime ..........:1:30
IMDb URL .........:http://www.imdb.com/title/tt1734587/
Language .........:English
File Size ........:925mb
Release Date ......... 2011
Source ......... Thanks Bud
File Type ......... Single AVI
PS3 Compatible ....... Sure why not
Genre ......... Comedy/Drama


Video
ID : 0
Format : MPEG-4 Visual
Format profile : Advanced [email protected]
Format settings, BVOP : Yes
Format settings, QPel : No
Format settings, GMC : No warppoints
Format settings, Matrix : Custom
Codec ID : XVID
Codec ID/Hint : XviD
Duration : 1h 30mn
Bit rate : 1225Kbps
Width : 680pixels
Height : 368pixels
Display aspect ratio : 16:9
Frame rate : 29.997fps
Color space : YUV
Chroma subsampling : 4:2:0
Bit depth : 8 bits
Scan type : Progressive
Bits/(Pixel*Frame) : 0.234
Stream size : 892 MiB (86%)
Writing library : XviD 1.2.1 (UTC 2008-12-04)


Audio
ID : 1
Format : AC3
Format/Info : Version 1
Mode extension : AC3
Codec ID : 2000
Duration : 1h 30mn
Bit rate mode : Constant
Bit rate : 192Kbps
Channel(s) : 2channels
Channel positions : Front: L R
Sampling rate : 48.0 KHz
Bit depth : 16 bits
Stream size : 302 MiB
Alignment : Aligned on interleaves
Interleave, duration : 42 ms (1.00 video frame)
Interleave, preload duration : 512 ms







SYSPNOSIS

30-year-old Lance is marrying Michelle the girl of his dreams, and his
closest buddies, Trey,Reny and Akeem are throwing him a bachelor party.
What starts out as an innocent evening of fun and frolic quickly turns
bitter when tempers flare, vendettas are revealed, painful memories
surface friendships are tested and love is measured by lies

related torrents

Torrent name

health leech seeds Size
 


comments (0)

Main Menu