Movies - Other

American Experience Triangle Fire DVDRip XviD-SPRiNTER

  • Download 5x Faster
  • Download torrent
  • Direct Download
  • Rate this torrent +  |  -

Torrent info

Name: American Experience Triangle Fire DVDRip XviD-SPRiNTER

Total Size: 560.56 MB

Magnet: Magnet Link

Seeds: 0

Leechers: 0

Stream: Watch Full Movie @ Movie4u

Last Updated: 0000-00-00 00:00:00 (Update Now)

Torrent added: 2011-09-28 06:35:29



CyberGhost VPN For Torrents

Torrent Files List


 

Announce URL: http://tracker.thepiratebay.org/announce

Torrent description

.

http://www.torrenting.com/ : Greatest Movie Tracker on The Net!!!

http://www.Torrenting.com : Once For all ;)


www . Torrenting . Com

(((((((((((((= Enjoy No RAR releases =))))))))))))))))))))


...................................NFO:....................................

.































ARTiCHOKE
























SPRiNTER proudly presents...



American.Experience.Triangle.Fire.DVDRip.XviD-SPRiNTER http://www.imdb.com/title/tt1803593/
Subtitles: English

Date: 2011.09
Genre: Documentary




Release notes



Another terrific documentary from the American Experience series takes
a look at the tragic fire that broke out at a sewing factory on March
25, 1911 that ended up killing 146 people with most of them being women.




News



We are currently looking for:

- Suppliers who can provide pre-retail or retail dvds with decent upload!
- 50Mbit+ dump providers with 1TB+ free space.
- Talented and dedicated xvid encoders.

[email protected]




Greetings




NTX aAF FiCO HNR CiNEFiLE AEN HUMANiSM 0MNiDVD TASTE




Details



Format : AVI
Format/Info : Audio Video Interleave
File size : 549 MiB
Duration : 54mn 39s
Overall bit rate : 1 405 Kbps
Writing application : Nandub v1.0rc2
Writing library : Nandub build 1852/release

Video
ID : 0
Format : MPEG-4 Visual
Format profile : [email protected]
Format settings, BVOP : 2
Format settings, QPel : No
Format settings, GMC : No warppoints
Format settings, Matrix : Default (MPEG)
Codec ID : XVID
Codec ID/Hint : XviD
Duration : 54mn 39s
Bit rate : 1 243 Kbps
Width : 640 pixels
Height : 352 pixels
Display aspect ratio : 16:9
Frame rate : 29.970 fps
Color space : YUV
Chroma subsampling : 4:2:0
Bit depth : 8 bits
Scan type : Progressive
Compression mode : Lossy
Bits/(Pixel*Frame) : 0.184
Stream size : 486 MiB (88%)
Writing library : XviD 1.0.3 (UTC 2004-12-20)

Audio
ID : 1
Format : MPEG Audio
Format version : Version 1
Format profile : Layer 3
Mode : Joint stereo
Codec ID : 55
Codec ID/Hint : MP3
Duration : 54mn 39s
Bit rate mode : Variable
Bit rate : 148 Kbps
Minimum bit rate : 128 Kbps
Channel(s) : 2 channels
Sampling rate : 48.0 KHz
Compression mode : Lossy
Stream size : 58.0 MiB (11%)
Alignment : Aligned on interleaves
Interleave, duration : 24 ms (0.72 video frame)
Interleave, preload duration : 413 ms
Writing library : LAME3.90.
Encoding settings : -m j -V 5 -q 2 -lowpass 18 --vbr-new -b 128


eave, preload duration : 413 ms
Writing library : LAME3.90.
Encoding settings : -m j -V 5 -q 2 -lowpass 18 --vbr-new -b 128

related torrents

Torrent name

health leech seeds Size
 


comments (0)

Main Menu