Movies - Other

Legend of the Millennium Dragon BRRip XviD DualAudio-SceneLovers

  • Download 5x Faster
  • Download torrent
  • Direct Download
  • Rate this torrent +  |  -

Torrent info

Name:Legend of the Millennium Dragon BRRip XviD DualAudio-SceneLovers

Total Size: 994.70 MB

Magnet: Magnet Link

Seeds: 0

Leechers: 2

Stream: Watch Full Movie @ Movie4u

Last Updated: 2017-04-09 11:05:01 (Update Now)

Torrent added: 2011-09-27 17:35:26



CyberGhost VPN For Torrents

Torrent Files List


 

tracker

leech seeds
 

Torrent description

Poster
Legend of the Millennium Dragon BRRip XviD DualAudio-SceneLovers preview 0

Screens
Legend of the Millennium Dragon BRRip XviD DualAudio-SceneLovers preview 1
Legend of the Millennium Dragon BRRip XviD DualAudio-SceneLovers preview 2

IMDB
http://www.imdb.com/title/tt1849027/


Video
ID : 0
Format : MPEG-4 Visual
Format profile : Advanced [email protected]
Format settings, BVOP : 2
Format settings, QPel : No
Format settings, GMC : No warppoints
Format settings, Matrix : Default (H.263)
Codec ID : XVID
Codec ID/Hint : XviD
Duration : 1h 38mn
Bit rate : 1 125 Kbps
Width : 704 pixels
Height : 304 pixels
Display aspect ratio : 2.35:1
Frame rate : 23.976 fps
Color space : YUV
Chroma subsampling : 4:2:0
Bit depth : 8 bits
Scan type : Progressive
Compression mode : Lossy
Bits/(Pixel*Frame) : 0.219
Stream size : 790 MiB (81%)
Writing library : XviD 1.2.1 (UTC 2008-12-04)


Audio #1
ID : 1
Format : MPEG Audio
Format version : Version 1
Format profile : Layer 3
Mode : Joint stereo
Mode extension : MS Stereo
Codec ID : 55
Codec ID/Hint : MP3
Duration : 1h 38mn
Bit rate mode : Constant
Bit rate : 128 Kbps
Channel(s) : 2 channels
Sampling rate : 48.0 KHz
Compression mode : Lossy
Stream size : 89.9 MiB (9%)
Alignment : Aligned on interleaves
Interleave, duration : 42 ms (1.00 video frame)
Interleave, preload duration : 504 ms
Writing library : LAME3.98r
Encoding settings : -m j -V 4 -q 2 -lowpass 17 -b 128

Audio #2
ID : 2
Format : MPEG Audio
Format version : Version 1
Format profile : Layer 3
Mode : Joint stereo
Mode extension : MS Stereo
Codec ID : 55
Codec ID/Hint : MP3
Duration : 1h 38mn
Bit rate mode : Constant
Bit rate : 128 Kbps
Channel(s) : 2 channels
Sampling rate : 48.0 KHz
Compression mode : Lossy
Stream size : 89.9 MiB (9%)
Alignment : Aligned on interleaves
Interleave, duration : 42 ms (1.00 video frame)
Interleave, preload duration : 504 ms
Writing library : LAME3.98r
Encoding settings : -m j -V 4 -q 2 -lowpass 17 -b 128

related torrents

Torrent name

health leech seeds Size
 


comments (0)

Main Menu