Movies - Other

{

  • Download 5x Faster
  • Download torrent
  • Direct Download
  • Rate this torrent +  |  -
{

Download FREE And Anonymously


Torrent info

Name:{

Total Size: 0.98 GB

Magnet: Magnet Link

Seeds: 1

Leechers: 0

Stream: Watch Full Movie @ Movie4u

Last Updated: 2011-09-27 10:35:29 (Update Now)

Torrent added: 2011-09-27 11:35:29

Alternatives:{ Torrents



CyberGhost VPN For Torrents

Torrent Files List


dbaotd-p2p.nfo (Size: 0.98 GB) (Files: 75)

 dbaotd-p2p.nfo

1.98 KB

 dbaotd-p2p.r00

14.31 MB

 dbaotd-p2p.r01

14.31 MB

 dbaotd-p2p.r02

14.31 MB

 dbaotd-p2p.r03

14.31 MB

 dbaotd-p2p.r04

14.31 MB

 dbaotd-p2p.r05

14.31 MB

 dbaotd-p2p.r06

14.31 MB

 dbaotd-p2p.r07

14.31 MB

 dbaotd-p2p.r08

14.31 MB

 dbaotd-p2p.r09

14.31 MB

 dbaotd-p2p.r10

14.31 MB

 dbaotd-p2p.r11

14.31 MB

 dbaotd-p2p.r12

14.31 MB

 dbaotd-p2p.r13

14.31 MB

 dbaotd-p2p.r14

14.31 MB

 dbaotd-p2p.r15

14.31 MB

 dbaotd-p2p.r16

14.31 MB

 dbaotd-p2p.r17

14.31 MB

 dbaotd-p2p.r18

14.31 MB

 dbaotd-p2p.r19

14.31 MB

 dbaotd-p2p.r20

14.31 MB

 dbaotd-p2p.r21

14.31 MB

 dbaotd-p2p.r22

14.31 MB

 dbaotd-p2p.r23

14.31 MB

 dbaotd-p2p.r24

14.31 MB

 dbaotd-p2p.r25

14.31 MB

 dbaotd-p2p.r26

14.31 MB

 dbaotd-p2p.r27

14.31 MB

 dbaotd-p2p.r28

14.31 MB

 dbaotd-p2p.r29

14.31 MB

 dbaotd-p2p.r30

14.31 MB

 dbaotd-p2p.r31

14.31 MB

 dbaotd-p2p.r32

14.31 MB

 dbaotd-p2p.r33

14.31 MB

 dbaotd-p2p.r34

14.31 MB

 dbaotd-p2p.r35

14.31 MB

 dbaotd-p2p.r36

14.31 MB

 dbaotd-p2p.r37

14.31 MB

 dbaotd-p2p.r38

14.31 MB

 dbaotd-p2p.r39

14.31 MB

 dbaotd-p2p.r40

14.31 MB

 dbaotd-p2p.r41

14.31 MB

 dbaotd-p2p.r42

14.31 MB

 dbaotd-p2p.r43

14.31 MB

 dbaotd-p2p.r44

14.31 MB

 dbaotd-p2p.r45

14.31 MB

 dbaotd-p2p.r46

14.31 MB

 dbaotd-p2p.r47

14.31 MB

 dbaotd-p2p.r48

14.31 MB

 dbaotd-p2p.r49

14.31 MB

 dbaotd-p2p.r50

14.31 MB

 dbaotd-p2p.r51

14.31 MB

 dbaotd-p2p.r52

14.31 MB

 dbaotd-p2p.r53

14.31 MB

 dbaotd-p2p.r54

14.31 MB

 dbaotd-p2p.r55

14.31 MB

 dbaotd-p2p.r56

14.31 MB

 dbaotd-p2p.r57

14.31 MB

 dbaotd-p2p.r58

14.31 MB

 dbaotd-p2p.r59

14.31 MB

 dbaotd-p2p.r60

14.31 MB

 dbaotd-p2p.r61

14.31 MB

 dbaotd-p2p.r62

14.31 MB

 dbaotd-p2p.r63

14.31 MB

 dbaotd-p2p.r64

14.31 MB

 dbaotd-p2p.r65

14.31 MB

 dbaotd-p2p.r66

14.31 MB

 dbaotd-p2p.r67

14.31 MB

 dbaotd-p2p.r68

1.78 MB

 dbaotd-p2p.rar

14.31 MB

 dbaotd-p2p.sfv

5.88 KB

 Downloaded from www.scenetime.com.txt

0.19 KB

 Read This Guide First.txt

0.19 KB

 Sample

  dbaotd-p2p-sample.avi

13.47 MB
 

Announce URL: http://tracker.publicbt.com:80

Torrent description

.

http://www.scenetime.com - Hottest private tracker on the net. !!!

New release on http://www.scenetime.com

Seed back for speed


...................................NFO:.................................................Dont Be Afraid Of The Dark 2011 KORSUBBED HDRIP-P2P

http://www.imdb.com/title/tt1270761/

Plot:

A young girl sent to live with her father and his new girlfriend discovers creatures in her new home who want to claim her as one of their own.


Video
ID : 0
Format : MPEG-4 Visual
Format settings, BVOP : Yes
Format settings, QPel : No
Format settings, GMC : No warppoints
Format settings, Matrix : Default (H.263)
Muxing mode : Packed bitstream
Codec ID : DX50
Codec ID/Hint : DivX 5
Duration : 1h 39mn
Bit rate : 77.6 Kbps
Width : 720 pixels
Height : 480 pixels
Display aspect ratio : 3:2
Frame rate : 23.976 fps
Standard : NTSC
Color space : YUV
Chroma subsampling : 4:2:0
Bit depth : 8 bits
Scan type : Progressive
Bits/(Pixel*Frame) : 0.009
Stream size : 55.2 MiB (35%)
Title : Video
Writing library : DivX 3013

Audio
ID : 1
Format : MPEG Audio
Format version : Version 1
Format profile : Layer 3
Codec ID : 55
Codec ID/Hint : MP3
Duration : 1h 39mn
Bit rate mode : Constant
Bit rate : 128 Kbps
Channel(s) : 2 channels
Sampling rate : 48.0 KHz
Stream size : 91.0 MiB (57%)
Alignment : Split accross interleaves
Title : Audio

NOTES: English audio, hardcoded korean subs



comments (0)

Main Menu