Movies - Other

Conan the Barbarian 2011 R5line ACC Xvid- ALLiANCE

  • Download 5x Faster
  • Download torrent
  • Direct Download
  • Rate this torrent +  |  -

Torrent info

Name:Conan the Barbarian 2011 R5line ACC Xvid- ALLiANCE

Total Size: 929.83 MB

Magnet: Magnet Link

Seeds: 0

Leechers: 0

Stream: Watch Full Movie @ Movie4u

Last Updated: 2011-09-27 07:38:19 (Update Now)

Torrent added: 2011-09-27 08:38:19



CyberGhost VPN For Torrents

Torrent Files List


Conan the Barbarian 2011.avi (Size: 929.83 MB) (Files: 8)

 Conan the Barbarian 2011.avi

699.34 MB

 File Help.txt

0.89 KB

 Subs

  Dutch.srt

25.44 KB

  French.srt

25.89 KB

 movie details.nfo

1.30 KB

 sample - Conan the Barbarian 2011.avi

230.43 MB

 torrent tracked by torrentbit_com.txt

0.09 KB

 torrent verified by Vertor_com.txt

0.12 KB
 

Announce URL:

Torrent description

Conan the Barbarian 2011 R5line ACC Xvid- ALLiANCE


Info:

Source.............: Conan the Barbarian 2011 R5line ALLiANCE
Audio..............: English DD 2.0
Subtitles.NL.......: Vertaald door Heksje Suurtje Mooie Team!!!
Controle...........: Suurtje
Bewerking+Resync...: Suurtje, Klasse werk m8 thnx
AVI.......2 CDS....: Zelda
Cover..............: Yes

Plot:

The tale of Conan the Cimmerian and his adventures across the continent of Hyboria on a quest to avenge the murder of his father and the slaughter of his village.


Format : AVI
Format/Info : Audio Video Interleave
Duration : 114mn 11s
Overall bit rate : 2 069 Kbps
Writing library : VirtualDub-MPEG2 build 18294/release

Video
ID : 0
Format : MPEG-4 Visual
Format profile : Advanced [email protected]
Format settings, BVOP : Yes
Format settings, QPel : No
Format settings, GMC : No warppoints
Format settings, Matrix : Default (H.263)
Muxing mode : Packed bitstream
Codec ID : DX50
Codec ID/Hint : DivX 5
Duration : 55mn 11s
Bit rate : 1 865 Kbps
Width : 720 pixels
Height : 416 pixels
Display aspect ratio : 16:9
Frame rate : 29.970 fps
Color space : YUV
Chroma subsampling : 4:2:0
Bit depth : 8 bits
Scan type : Progressive
Bits/(Pixel*Frame) : 0.208
Stream size : 736 MiB (90%)
Writing library : XviD 1.2.1 (UTC 2008-12-04)

Audio
ID : 1
Format : AC-3
Format/Info : Audio Coding 3
Mode extension : CM (complete main)
Codec ID : 2000
Duration : 55mn 11s
Bit rate mode : Constant
Bit rate : 192 Kbps
Channel(s) : 2 channels
Channel positions : Front: L R
Sampling rate : 48.0 KHz
Bit depth : 16 bits
Stream size : 75.8 MiB (9%)
Alignment : Split accross interleaves
Interleave, duration : 33 ms (1.00 video frame)
Interleave, preload duration : 500 ms

********Enjoy********

related torrents

Torrent name

health leech seeds Size
 


comments (0)

Main Menu