Movies - Other

30 Minutes or Less 2011 Unrated R5line ACC Xvid- AbSurdiTy

  • Download 5x Faster
  • Download torrent
  • Direct Download
  • Rate this torrent +  |  -

Torrent info

Name:30 Minutes or Less 2011 Unrated R5line ACC Xvid- AbSurdiTy

Total Size: 766.36 MB

Magnet: Magnet Link

Seeds: 1

Leechers: 2

Stream: Watch Full Movie @ Movie4u

Last Updated: 0000-00-00 00:00:00 (Update Now)

Torrent added: 2011-09-27 08:37:55



CyberGhost VPN For Torrents

Torrent Files List


30 Minutes or Less 2011.avi (Size: 766.36 MB) (Files: 8)

 30 Minutes or Less 2011.avi

711.99 MB

 File Help.txt

0.89 KB

 Subs

  Dutch.srt

25.44 KB

  French.srt

25.89 KB

 Torrent Tracked By www.Demonoid.com.txt.txt

0.13 KB

 movie details.nfo

1.30 KB

 sample-30mins.avi

54.32 MB

 torrent verified by h33t_com.txt

0.12 KB
 

Announce URL: http://tracker.publicbt.com:80

Torrent description

Format : AVI
Format profile : Base Media
Codec ID : isom
Overall bit rate : 1 571 Kbps


Video
Format profile : [email protected]
Format settings, CABAC : Yes
Format settings, ReFrames : 3 frames
Codec ID : avc1
Codec ID/Info : Advanced Video Coding
Bit rate mode : Variable
Bit rate : 1 340 Kbps
Maximum bit rate : 5 545 Kbps
Width : 640 pixels
Height : 392 pixels
Display aspect ratio : 1.633
Frame rate mode : Constant
Frame rate : 23.976 fps
Color space : YUV
Chroma subsampling : 4:2:0
Bit depth : 8 bits
Scan type : Progressive
Bits/(Pixel*Frame) : 0.223
Stream size : 1.11 GiB (86%)
Writing library : x264


Audio
ID : 2
Format : AAC
Format/Info : Advanced Audio Codec
Format version : Version 4
Format profile : LC
Format settings, SBR : No
Bit rate mode : Variable
Bit rate : 224 Kbps
Maximum bit rate : 312 Kbps
Channel(s) : 2 channels
Channel positions : Front: L R
Sampling rate : 44.1 KHz
Stream size : 190 MiB (14%)

Sample Included.



Plot:

Two fledgling criminals kidnap a pizza delivery guy, strap a bomb to his chest, and inform him that he has mere hours to rob a bank or else...


Greets:

INK,CRYS,IMAGINE,LKRG,FXG,3Li,FLAWL3SS,TA,iLLUSiON,ViSiON,DTRG SAFCuk009,LU,TheFalcon007,MYSTiC,PrisM,Noir,WBZ,LAP,Rx,Kingdom,SAFCuk009+Fabreezy,HDLiTE,TWiZTED,ExtraTorrentRG.ELEKTRI4KA,MAGNAT,CM8
And to all the other p2p grps past and present

related torrents

Torrent name

health leech seeds Size
 


comments (0)

Main Menu