Movies - Other

Harry Potter and the Deathly Hallows Part 2 2011 R5LiNe Ac3 Eng Clear-HQ-IMAGINE

  • Download 5x Faster
  • Download torrent
  • Direct Download
  • Rate this torrent +  |  -

Torrent info

Name:Harry Potter and the Deathly Hallows Part 2 2011 R5LiNe Ac3 Eng Clear-HQ-IMAGINE

Total Size: 777.17 MB

Magnet: Magnet Link

Seeds: 1

Leechers: 1

Stream: Watch Full Movie @ Movie4u

Last Updated: 2011-09-27 07:37:05 (Update Now)

Torrent added: 2011-09-27 08:37:05



CyberGhost VPN For Torrents

Torrent Files List


Harry Potter and the Deathly Hallows Part 2 2011 Full Movie.avi (Size: 777.17 MB) (Files: 7)

 Harry Potter and the Deathly Hallows Part 2 2011 Full Movie.avi

769.38 MB

 Important information about the files.txt

1.01 KB

 Subtitles.rar

86.74 KB

 Torrent Tracked By www.Demonoid.com.txt.txt

0.13 KB

 movie information.nfo

1.30 KB

 sample

  sample - Harry Potter and the Deathly Hallows- Part 2.avi

7.70 MB

 torrent tracked by torrentbit_com.txt

0.09 KB
 

Announce URL: http://tracker.publicbt.com:80

Torrent description

Harry Potter and the Deathly Hallows Part 2 2011 R5LiNe Ac3 Eng Clear-HQ-IMAGINE

Format : AVI
Format/Info : Audio Video Inerleave
Format profile : OpenDML
Overall bit rate : 2 093 Kbps
Writing application : VirtualDubMod 1.5.10.2 (build 2542/release)
Writing library : VirtualDubMod build 2542/release
Original source form : MAX TORRENTZ
Copyright : SIGISMUNT

Video
ID : 0
Format : MPEG-4 Visual
Format profile : [email protected]
Format settings, BVOP : Yes
Format settings, QPel : No
Format settings, GMC : No warppoints
Format settings, Matrix : Default (H.263)
Codec ID : XVID
Codec ID/Hint : XviD
Duration : 1h 33mn
Bit rate : 1 897 Kbps
Width : 720 pixels
Height : 400 pixels
Display aspect ratio : 16:9
Frame rate : 23.976 fps
Resolution : 24 bits
Colorimetry : 4:2:0
Scan type : Progressive
Bits/(Pixel*Frame) : 0.275
Stream size : 1.23 GiB (91%)
Writing library : XviD 1.2.1 (UTC 2008-12-04)

Audio
ID : 1
Format : MPEG Audio
Format version : Version 1
Format profile : Layer 2
Codec ID : 50
Codec ID/Hint : MP1
Duration : 1h 33mn
Bit rate mode : Constant
Bit rate : 192 Kbps
Channel(s) : 2 channels
Sampling rate : 48.0 KHz
Resolution : 16 bits
Stream size : 128 MiB (9%)
Alignment : Aligned on interleaves
Interleave, duration : 436 ms (10.45 video frames)
Interleave, preload duration : 216 ms

related torrents

Torrent name

health leech seeds Size
 


comments (0)

Main Menu