Movies - Other

Harry Potter And The Deathly Hallows Part 2 2011 DvDSCR XViD STUDIO AUDIO-MC8

  • Download 5x Faster
  • Download torrent
  • Direct Download
  • Rate this torrent +  |  -

Torrent info

Name:Harry Potter And The Deathly Hallows Part 2 2011 DvDSCR XViD STUDIO AUDIO-MC8

Total Size: 812.12 MB

Magnet: Magnet Link

Seeds: 0

Leechers: 0

Stream: Watch Full Movie @ Movie4u

Last Updated: 2011-09-27 07:36:12 (Update Now)

Torrent added: 2011-09-27 08:36:12



CyberGhost VPN For Torrents

Torrent Files List


Harry Potter And The Deathly Hallows Part 2 2011 DvDSCR XViD STUDIO AUDIO-MC8.avi (Size: 812.12 MB) (Files: 5)

 Harry Potter And The Deathly Hallows Part 2 2011 DvDSCR XViD STUDIO AUDIO-MC8.avi

791.75 MB

 Harry Potter And The Deathly Hallows Part 2 2011 DvDSCR XViD STUDIO AUDIO-MC8.nfo

2.51 KB

 Torrent Tracked by www.Vertor.com.txt

0.06 KB

 [SAMPLE]-Harry Potter And The Deathly Hallows Part 2 2011 DvDSCR XViD STUDIO AUDIO-MC8

  SAMPLE.avi

20.37 MB

 www.SceneTime.com.txt

0.23 KB
 

Announce URL: http://tracker.publicbt.com:80

Torrent description

Harry Potter and the Deathly Hallows: Part 2 2011
http://www.imdb.com/title/tt1201607/

Language : English
Format/Info : Audio Video Interleave
Format profile : OpenDML
Duration : 2h 32mn
Overall bit rate : 1 696 Kbps

Video
ID : 0
Format : Avi
Format profile : [email protected]
Format settings, BVOP : No
Format settings, QPel : No
Format settings, GMC : No warppoints
Format settings, Matrix : Default (H.263)
Codec ID : XVID
Codec ID/Hint : XviD
Duration : 2h 32mn
Bit rate : 1 550 Kbps
Width : 720 pixels
Height : 480 pixels
Display aspect ratio : 1.500
Frame rate : 29.970 fps
Original frame rate : 29.000 fps
Standard : NTSC
Resolution : 24 bits
Colorimetry : 4:2:0
Scan type : Progressive
Bits/(Pixel*Frame) : 0.150
Stream size : 1.12 GiB (91%)
Writing library : XviD 1.2.1 (UTC 2008-12-04)

Audio
ID : 1
Format : MPEG Audio
Format version : Version 1
Format profile : Layer 3
Format_Settings_Mode : Joint stereo / MS Stereo
Codec ID : 55
Codec ID/Hint : MP3
Duration : 2h 32mn
Bit rate mode : Constant
Bit rate : 128 Kbps
Channel(s) : 2 channels
Sampling rate : 44.1 KHz
Resolution : 16 bits
Stream size : 94.9 MiB (8%)
Alignment : Aligned on interleaves
Interleave, duration : 26 ms (0.78 video frame)
Writing library : LAME3.98.2

Plot:
The final chapter begins as Harry, Ron, and Hermione continue their quest of finding and destroying the Dark Lords three remaining Horcruxes.


Release notes...

Another quality release from IFLIX
More to come very soon!

Video source: Ours
Audio source: Ours

Greetings to all other groups out there. You all do awesome work and we greatly appreciate it.

related torrents

Torrent name

health leech seeds Size
 


comments (0)

Main Menu