Movies - Other

April Showers (2009) mkv

  • Download 5x Faster
  • Download torrent
  • Direct Download
  • Rate this torrent +  |  -
April Showers (2009) mkv

Download FREE And Anonymously


Torrent info

Name:April Showers (2009) mkv

Total Size: 1.20 GB

Magnet: Magnet Link

Seeds: 0

Leechers: 0

Stream: Watch Full Movie @ Movie4u

Last Updated: 2011-09-27 05:35:26 (Update Now)

Torrent added: 2011-09-27 06:35:26



CyberGhost VPN For Torrents

Torrent Files List


April Showers (2009).mkv (Size: 1.20 GB) (Files: 1)

 April Showers (2009).mkv

1.20 GB
 

Announce URL: http://tracker.publicbt.com:80

Torrent description

April Showers (USA 2009) Anna Adams, Dominic Arellano, Mark Arnold, Tom Arnold

A look inside a tragedy through the eyes of a survivor. Based on actual events, April Showers is about picking up the pieces in the direct aftermath of school violence. Set in a middle class suburban neighborhood, April Showers focuses on the lives of a handful of teachers and students as they attempt to make sense of a world that has just been turned upside down by one of their own. With the community and an entire nation caught up in the story, the students of Jefferson High must turn to one another for answers. In the wake atrocity, the rifts caused by misinformation and a frenzied media prove difficult to overcome. Lost and lonely under the international spotlight, one young man navigates his way through his almost indiscernible home. From quaint suburban town to battlefield turned media circus, Jefferson High provides the backdrop for Seans struggle to cope with the loss of his friend April.
April Wade (producer)

Format : Matroska
Format version : Version 1
File size : 1.20 GiB
Duration : 1h 43mn
Overall bit rate : 1 661 Kbps
Writing application : VirtualDubMod 1.5.10.2 (build 2542/release)
Writing library : libebml-0.7.5 libmatroska-0.7.7

Video
ID : 1
Format : MPEG-4 Visual
Format profile : Advanced [email protected]
Format settings, BVOP : Yes
Format settings, QPel : No
Format settings, GMC : No warppoints
Format settings, Matrix : Default (MPEG)
Codec ID : XVID
Codec ID/Hint : XviD
Duration : 1h 43mn
Bit rate : 1 404 Kbps
Width : 704 pixels
Height : 384 pixels
Display aspect ratio : 16:9
Frame rate : 23.976 fps
Color space : YUV
Chroma subsampling : 4:2:0
Bit depth : 8 bits
Scan type : Progressive
Compression mode : Lossy
Bits/(Pixel*Frame) : 0.217
Stream size : 1.01 GiB (85%)
Writing library : XviD 1.2.0.dev47 (UTC 2006-11-01)
Language : English

Audio
ID : 2
Format : AC-3
Format/Info : Audio Coding 3
Mode extension : CM (complete main)
Codec ID : 2000
Duration : 1h 43mn
Bit rate mode : Constant
Bit rate : 224 Kbps
Channel(s) : 2 channels
Channel positions : Front: L R
Sampling rate : 48.0 KHz
Bit depth : 16 bits
Compression mode : Lossy
Stream size : 165 MiB (13%)
Language : English

related torrents

Torrent name

health leech seeds Size
 


comments (0)

Main Menu